Важное объявление!
У Нас Все раздачи мультитрекерные, при нуле пиров в релизах, можете смело вставать на закачку!
 
Автор Сообщение

HUNTER

Стаж:
4 года 4 месяца
Сообщений:
56809

Репутация: 101

[+] [-]
Вне форума [Профиль] [ЛС]

Судья / The Judge
Страна: США
Жанр: Драма
Год выпуска: 2014
Продолжительность: 02:21:31
Перевод 1: Профессиональный (дублированный) [iTunes]
Оригинальная аудиодорожка: английская
Cубтитры:Русские [Full, Forced], Английские
Режиссер: Дэвид Добкин / David Dobkin
В ролях: Роберт Дауни мл. (Hank Palmer), Роберт Дювалл (Joseph Palmer), Вера Фармига (Samantha Powell), Билли Боб Торнтон (Dwight Dickham), Винсент Д’Онофрио (Glen Palmer), Джереми Стронг (Dale Palmer), Дэкс Шепард (C.P. Kennedy), Лейтон Мистер (Carla Powell), Кен Ховард (Judge Warren), Эмма Трамбле (Lauren Palmer), Бальтазар Гетти (Deputy Hanson), Дэвид Крамхолц (Mike Kattan)
Описание:В центре истории - успешный адвокат, который приезжает в родной город на похороны матери и узнаёт, что его отца, городского судью, подозревают в убийстве. Герой решает задержаться, чтобы выяснить правду, и постепенно лучше узнаёт родственников, с которыми давно вообще никак не общался.

Качество: BDRip720p
Контейнер: MKV
Видео: 1280x534 (2.40:1), 5843 Кбит/сек, 23,976 кадр/сек, 0,357 Бит/[Пиксели*Кадры]
Аудио 1: AC3, 6 каналов, 384 Кбит/сек | Русский MVO
Аудио 2: AC3, 6 каналов, 640 Кбит/сек | Английский

MI

Общее
Уникальный идентификатор : 172681001803760236821576229695607441408 (0x81E926B65BB0DE98B026E931EAEA8800)
Полное имя : C:\Users\Пользователь\Downloads\Sud'ja.(2014).BDRip.720p.[denis100].mkv
Формат : Matroska
Версия формата : Version 4 / Version 2
Размер файла : 6,93 Гбайт
Продолжительность : 2 ч. 21 м.
Общий поток : 7007 Кбит/сек
Название фильма : Sud'ja.(2014).BDRip.720p.[denis100]
Дата кодирования : UTC 2015-01-24 09:58:43
Программа кодирования : mkvmerge v7.5.0 ('Glass Culture') 32bit built on Jan 4 2015 16:37:25
Библиотека кодирования : libebml v1.3.1 + libmatroska v1.4.2
DURATION : 02:19:55.386000000
NUMBER_OF_FRAMES : 2003
NUMBER_OF_BYTES : 78638
_STATISTICS_WRITING_APP : mkvmerge v7.5.0 ('Glass Culture') 32bit built on Jan 4 2015 16:37:25
_STATISTICS_WRITING_DATE_UTC : 2015-01-24 09:58:43
_STATISTICS_TAGS : BPS DURATION NUMBER_OF_FRAMES NUMBER_OF_BYTES
Видео
Идентификатор : 1
Формат : AVC
Формат/Информация : Advanced Video Codec
Профиль формата : High@L4.1
Параметр CABAC формата : Да
Параметр ReFrames формата : 11 кадров
Идентификатор кодека : V_MPEG4/ISO/AVC
Продолжительность : 2 ч. 21 м.
Битрейт : 5844 Кбит/сек
Ширина : 1280 пикселей
Высота : 534 пикселя
Соотношение сторон : 2,40:1
Режим частоты кадров : Постоянный
Частота кадров : 23,976 кадра/сек
Цветовое пространство : YUV
Субдискретизация насыщенности : 4:2:0
Битовая глубина : 8 бит
Тип развёртки : Прогрессивная
Бит/(Пиксели*Кадры) : 0.357
Размер потока : 5,78 Гбайт (83%)
Заголовок : Sud'ja.(2014).BDRip.720p.[denis100]
Библиотека кодирования : x264 core 142 r2491 24e4fed
Настройки программы : cabac=1 / ref=11 / deblock=1:-3:-3 / analyse=0x3:0x133 / me=umh / subme=11 / psy=1 / psy_rd=1.00:0.10 / mixed_ref=1 / me_range=32 / chroma_me=1 / trellis=2 / 8x8dct=1 / cqm=0 / deadzone=21,11 / fast_pskip=0 / chroma_qp_offset=-3 / threads=6 / lookahead_threads=1 / sliced_threads=0 / nr=0 / decimate=1 / interlaced=0 / bluray_compat=0 / constrained_intra=0 / bframes=10 / b_pyramid=2 / b_adapt=2 / b_bias=0 / direct=3 / weightb=1 / open_gop=0 / weightp=2 / keyint=240 / keyint_min=23 / scenecut=40 / intra_refresh=0 / rc=crf / mbtree=0 / crf=17.6 / qcomp=0.60 / qpmin=0 / qpmax=69 / qpstep=4 / ip_ratio=1.40 / pb_ratio=1.30 / aq=1:0.90
Язык : English
Default : Да
Forced : Нет
DURATION : 02:21:31.608000000
NUMBER_OF_FRAMES : 203595
NUMBER_OF_BYTES : 6349154300
_STATISTICS_WRITING_APP : mkvmerge v7.5.0 ('Glass Culture') 32bit built on Jan 4 2015 16:37:25
_STATISTICS_WRITING_DATE_UTC : 2015-01-24 09:58:43
_STATISTICS_TAGS : BPS DURATION NUMBER_OF_FRAMES NUMBER_OF_BYTES
Аудио #1
Идентификатор : 2
Формат : AC-3
Формат/Информация : Audio Coding 3
Расширение режима : CM (complete main)
Параметр Endianness формата : Big
Идентификатор кодека : A_AC3
Продолжительность : 2 ч. 21 м.
Вид битрейта : Постоянный
Битрейт : 384 Кбит/сек
Каналы : 6 каналов
Расположение каналов : Front: L C R, Side: L R, LFE
Частота : 48,0 КГц
Битовая глубина : 16 бит
Метод сжатия : С потерями
Размер потока : 389 Мбайт (5%)
Заголовок : Дублированный - iTunes Russia
Язык : Russian
Default : Да
Forced : Нет
Аудио #2
Идентификатор : 3
Формат : AC-3
Формат/Информация : Audio Coding 3
Расширение режима : CM (complete main)
Параметр Endianness формата : Big
Идентификатор кодека : A_AC3
Продолжительность : 2 ч. 21 м.
Вид битрейта : Постоянный
Битрейт : 640 Кбит/сек
Каналы : 6 каналов
Расположение каналов : Front: L C R, Side: L R, LFE
Частота : 48,0 КГц
Битовая глубина : 16 бит
Метод сжатия : С потерями
Размер потока : 648 Мбайт (9%)
Заголовок : English
Язык : English
Default : Нет
Forced : Нет
Текст #1
Идентификатор : 4
Формат : UTF-8
Идентификатор кодека : S_TEXT/UTF8
Идентификатор кодека/Информация : UTF-8 Plain Text
Заголовок : Russian
Язык : Russian
Default : Нет
Forced : Нет
Текст #2
Идентификатор : 5
Формат : UTF-8
Идентификатор кодека : S_TEXT/UTF8
Идентификатор кодека/Информация : UTF-8 Plain Text
Заголовок : Russian Forced
Язык : Russian
Default : Нет
Forced : Нет
Текст #3
Идентификатор : 6
Формат : UTF-8
Идентификатор кодека : S_TEXT/UTF8
Идентификатор кодека/Информация : UTF-8 Plain Text
Заголовок : English
Язык : English
Default : Нет
Forced : Нет
Меню
00:00:00.000 : en:00:00:00.000
00:11:59.217 : en:00:11:59.217
00:20:47.119 : en:00:20:47.119
00:31:22.547 : en:00:31:22.547
00:41:06.380 : en:00:41:06.380
00:50:42.621 : en:00:50:42.621
00:59:44.496 : en:00:59:44.496
01:09:25.452 : en:01:09:25.452
01:20:00.753 : en:01:20:00.753
01:28:33.765 : en:01:28:33.765
01:40:18.970 : en:01:40:18.970
01:51:38.942 : en:01:51:38.942
02:01:30.323 : en:02:01:30.323
02:10:55.680 : en:02:10:55.680
02:14:45.077 : en:02:14:45.077

Скриншоты


_________________
Показать сообщения:    

Текущее время: Сегодня 18:17

Часовой пояс: GMT



Вы не можете начинать темы
Вы не можете отвечать на сообщения
Вы не можете редактировать свои сообщения
Вы не можете удалять свои сообщения
Вы не можете голосовать в опросах
Вы не можете прикреплять файлы к сообщениям
Вы не можете скачивать файлы