Важное объявление!
У Нас Все раздачи мультитрекерные, при нуле пиров в релизах, можете смело вставать на закачку!
 
Автор Сообщение

HUNTER

Стаж:
4 года 4 месяца
Сообщений:
56734

Репутация: 101

[+] [-]
Вне форума [Профиль] [ЛС]

-Судная ночь / The Purge-

Год выпуска: 2013
Страна: США, Франция
Жанр: триллер, ужасы
Продолжительность: 01:25:18
Перевод: Дублированный [лицензия]
Субтитры: Нет-В ролях: Итан Хоук, Лина Хиди, Макс Буркхолдер, Аделаида Кэйн, Эдвин Ходж, Риз Уэйкфилд, Тони Оллер, Ария Барейкис, Том Йи, Крис Малки
Режиссёр: Джеймс ДеМонако-Описание:-Мир будущего — мир без преступности… безработицы… войн. И все это благодаря одной ночи в году, когда можно отправить на тот свет любого — злобного босса, шумных соседей, надоевших родственников. В Судную ночь дозволено все — главное дожить до рассвета.-Качество: BDRip-AVC
Формат: MKV
Видео кодек: AVC
Аудио кодек: AC3
Видео: AVC 2 753 Kbps, 1152x480, 23.976 fps
Аудио : Русский (AC3, 6 ch, 448 Кбит/с), 48.0 KHz
Автор рипа: OMEGA

Рейтинг

Рейтинг:

MI

General
Unique ID : 255091818375803334704764619688353082418 (0xBFE8E5AC2272AEFF9C7B4A59534E2C32)
Complete name : G:\Новая папка\The.Purge.2013.D.BDRip-AVC.mkv
Format : Matroska
Format version : Version 2
File size : 1.91 GiB
Duration : 1h 25mn
Overall bit rate : 3 202 Kbps
Encoded date : UTC 2013-10-09 09:09:06
Writing application : mkvmerge v4.9.1 ('Ich will') built on Sep 21 2011 17:48:11
Writing library : libebml v1.2.1 + libmatroska v1.2.0
Video
ID : 1
Format : AVC
Format/Info : Advanced Video Codec
Format profile : [url=mailto:High@L3.1]High@L3.1[/url]
Format settings, CABAC : Yes
Format settings, ReFrames : 4 frames
Codec ID : V_MPEG4/ISO/AVC
Duration : 1h 25mn
Bit rate : 2 753 Kbps
Width : 1 152 pixels
Height : 480 pixels
Display aspect ratio : 2.40:1
Frame rate mode : Constant
Frame rate : 23.976 fps
Color space : YUV
Chroma subsampling : 4:2:0
Bit depth : 8 bits
Scan type : Progressive
Bits/(Pixel*Frame) : 0.208
Stream size : 1.60 GiB (84%)
Writing library : x264 core 118 r2085 8a62835
Encoding settings : cabac=1 / ref=3 / deblock=1:0:0 / analyse=0x3:0x113 / me=hex / subme=7 / psy=1 / psy_rd=1.00:0.00 / mixed_ref=1 / me_range=16 / chroma_me=1 / trellis=1 / 8x8dct=1 / cqm=0 / deadzone=21,11 / fast_pskip=1 / chroma_qp_offset=-2 / threads=18 / sliced_threads=0 / nr=0 / decimate=1 / interlaced=0 / bluray_compat=0 / constrained_intra=0 / bframes=3 / b_pyramid=2 / b_adapt=1 / b_bias=0 / direct=3 / weightb=1 / open_gop=0 / weightp=2 / keyint=250 / keyint_min=23 / scenecut=40 / intra_refresh=0 / rc_lookahead=40 / rc=2pass / mbtree=1 / bitrate=2753 / ratetol=1.0 / qcomp=0.60 / qpmin=0 / qpmax=69 / qpstep=4 / cplxblur=20.0 / qblur=0.5 / ip_ratio=1.40 / aq=1:1.00
Default : Yes
Forced : No
Audio
ID : 2
Format : AC-3
Format/Info : Audio Coding 3
Mode extension : CM (complete main)
Format settings, Endianness : Big
Codec ID : A_AC3
Duration : 1h 25mn
Bit rate mode : Constant
Bit rate : 448 Kbps
Channel(s) : 6 channels
Channel positions : Front: L C R, Side: L R, LFE
Sampling rate : 48.0 KHz
Bit depth : 16 bits
Compression mode : Lossy
Stream size : 273 MiB (14%)
Default : Yes
Forced : No

Скриншоты

- -

_________________
Показать сообщения:    

Текущее время: Сегодня 13:49

Часовой пояс: GMT



Вы не можете начинать темы
Вы не можете отвечать на сообщения
Вы не можете редактировать свои сообщения
Вы не можете удалять свои сообщения
Вы не можете голосовать в опросах
Вы не можете прикреплять файлы к сообщениям
Вы не можете скачивать файлы