Важное объявление!
У Нас Все раздачи мультитрекерные, при нуле пиров в релизах, можете смело вставать на закачку!
 
Автор Сообщение

HUNTER

Стаж:
4 года 4 месяца
Сообщений:
56719

Репутация: 101

[+] [-]
Вне форума [Профиль] [ЛС]

Стэпфордские жены / The Stepford Wives-
Страна: США
Жанр: фантастика, триллер, комедия
Год выпуска: 2004
Продолжительность: 01:28:55
Перевод: Профессиональный (дублированный)
Cубтитры: русские, английские
Оригинальная аудиодорожка: английский-Режиссер: Фрэнк Оз / Frank Oz
В ролях: Николь Кидман (Joanna Eberhart), Мэттью Бродерик (Walter Kresby), Бетт Мидлер (Bobbie Markowitz), Гленн Клоуз (Claire Wellington), Кристофер Уокен (Mike Wellington), Роджер Барт (Roger Bannister), Дэвид Маршалл Грант (Jerry Harmon), Джон Ловиц (Dave Markowitz), Дилан Хэртиган (Pete Kresby), Фэллон Брукин (Kimberly Kresby), Фэйт Хилл (Sarah Sunderson), Мэтт Мэллой (Herb Sunderson)-Описание: Пережившая нервный срыв руководительница телекомпании Джоанна Эберхарт переезжает вместе с мужем Уолтером в городок Степфорд, штат Коннектикут, чтобы побыть вдали от стрессов большого города. Этот райский уголок на первый взгляд представляется идеальным. Но вскоре Джоанна и ее новая подруга Бобби замечают, в кажущейся безмятежности есть что-то странное, настораживающее. Да и местные домохозяйки ведут себя как-то уж слишком подозрительно: все одинаково приветливые, ухоженные и скучные. Джоанна решает во что бы то ни стало докопаться до тайны, которую скрывает совершенный город и его безупречные жены…-
-Качество видео: HDTVRip 720p
Формат видео: MKV
Видео: x.264, 1280x720, 6645 Kbps, 25 fps
Аудио 1: AC3, 48000 Hz, 448 kbps, 5.1 ch - RUS
Аудио 2: AC3, 48000 Hz, 448 kbps, 5.1 ch - ENG
Формат субтитров: softsub (SRT) - русские, английские-

Скриншоты


Резервные скриншоты


MediaInfo

Format : Matroska
Format version : Version 4 / Version 2
File size : 4.69 GiB
Duration : 1h 29mn
Overall bit rate : 7 539 Kbps
Movie name : Стэпфордские жены / The Stepford Wives (2004) HDTVRip 720p
Encoded date : UTC 2014-08-31 22:47:39
Writing application : mkvmerge v7.1.0 ('Good Love') 32bit built on Jul 27 2014 12:59:18
Writing library : libebml v1.3.0 + libmatroska v1.4.1
Cover : Yes
Video
ID : 1
Format : AVC
Format/Info : Advanced Video Codec
Format profile : High@L5.1
Format settings, CABAC : Yes
Format settings, ReFrames : 8 frames
Codec ID : V_MPEG4/ISO/AVC
Duration : 1h 29mn
Bit rate : 6 645 Kbps
Width : 1 280 pixels
Height : 720 pixels
Display aspect ratio : 16:9
Frame rate mode : Constant
Frame rate : 25.000 fps
Color space : YUV
Chroma subsampling : 4:2:0
Bit depth : 8 bits
Scan type : Progressive
Bits/(Pixel*Frame) : 0.288
Stream size : 4.04 GiB (86%)
Title : RG Torrents.ru
Writing library : x264 core 54
Encoding settings : cabac=1 / ref=5 / deblock=1:-1:-1 / analyse=0x3:0x113 / me=hex / subme=7 / brdo=1 / mixed_ref=1 / me_range=16 / chroma_me=1 / trellis=1 / 8x8dct=1 / cqm=0 / deadzone=21,11 / chroma_qp_offset=0 / slices=3 / nr=0 / decimate=1 / mbaff=0 / bframes=3 / b_pyramid=1 / b_adapt=1 / b_bias=0 / direct=1 / wpredb=1 / bime=1 / keyint=250 / keyint_min=25 / scenecut=40 / rc=2pass / bitrate=6645 / ratetol=1.0 / rceq='blurCplx^(1-qComp)' / qcomp=0.60 / qpmin=10 / qpmax=51 / qpstep=4 / cplxblur=20.0 / qblur=0.5 / ip_ratio=1.40 / pb_ratio=1.30
Language : English
Default : Yes
Forced : No
Audio #1
ID : 2
Format : AC-3
Format/Info : Audio Coding 3
Mode extension : CM (complete main)
Format settings, Endianness : Big
Codec ID : A_AC3
Duration : 1h 29mn
Bit rate mode : Constant
Bit rate : 448 Kbps
Channel(s) : 6 channels
Channel positions : Front: L C R, Side: L R, LFE
Sampling rate : 48.0 KHz
Bit depth : 16 bits
Compression mode : Lossy
Stream size : 285 MiB (6%)
Title : DUB
Language : Russian
Default : Yes
Forced : No
Audio #2
ID : 3
Format : AC-3
Format/Info : Audio Coding 3
Mode extension : CM (complete main)
Format settings, Endianness : Big
Codec ID : A_AC3
Duration : 1h 29mn
Bit rate mode : Constant
Bit rate : 448 Kbps
Channel(s) : 6 channels
Channel positions : Front: L C R, Side: L R, LFE
Sampling rate : 48.0 KHz
Bit depth : 16 bits
Compression mode : Lossy
Stream size : 285 MiB (6%)
Language : English
Default : No
Forced : No
Text #1
ID : 4
Format : UTF-8
Codec ID : S_TEXT/UTF8
Codec ID/Info : UTF-8 Plain Text
Language : Russian
Default : No
Forced : No
Text #2
ID : 5
Format : UTF-8
Codec ID : S_TEXT/UTF8
Codec ID/Info : UTF-8 Plain Text
Language : English
Default : No
Forced : No

_________________
Показать сообщения:    

Текущее время: Сегодня 03:11

Часовой пояс: GMT



Вы не можете начинать темы
Вы не можете отвечать на сообщения
Вы не можете редактировать свои сообщения
Вы не можете удалять свои сообщения
Вы не можете голосовать в опросах
Вы не можете прикреплять файлы к сообщениям
Вы не можете скачивать файлы