Важное объявление!
У Нас Все раздачи мультитрекерные, при нуле пиров в релизах, можете смело вставать на закачку!
 
Автор Сообщение

HUNTER

Стаж:
4 года 4 месяца
Сообщений:
56798

Репутация: 101

[+] [-]
Вне форума [Профиль] [ЛС]

Студия современных клубных танцев-
Год выпуска: 2008
Страна: Россия
Сайт производителя: отсутствует
Тематика: Танцы
Тип материала: Видео уроки-Продолжительность: 03:37:59
Автор: Ю.Горошевский, В.Минков
В ролях: Лада Абрамчик (инструктор танцевальной студии City Dance), Алексей Маргарита (хореограф), Татьяна Романова (хореограф)-Язык: Русский
Субтитры: отсутствуют-Описание: R'n'B: Основной курс.
R'n'B - одно из самых популярных направлений в музыке. И, соответственно, в танцах. Данный видеокурс разработан специально для начинающих - для тех, кто хочет научиться танцевать в клубе, быть в центре внимания, иметь успех.
R'n'B: Продвинутый курс.
Если ты относишь себя к неплохим танцорам и понимаешь основные отличия R'n'B от других стилей, то пора разнообразить свои движения с помощью курса "R'n'B: Продвинутый курс". Пора уже занять достойное место на танцполе.
Hip-Hop New Style
Hip-Hop new style - ультрамодное направление танцевальное направление, зародившееся в 80-х годах в США и получившее широкое распространение по всему миру. Особенность Hip-Hop new style в том, что этот танец вбирает в себя все самое лучшее из различных танцевальных направлений: рэгги, латино, джаза, модерна, большего всего движений в нем из верхнего брейк-данса. Различные элементы сочетаются вполне естественно, позволяя танцору импровизировать, создать свой неповторимый стиль.
Клубный танец.
Клубный танец сейчас - одно из самых популярных танцевальных направлений. Сочетая в себе зразличные стили, такие как хип-хоп, хаус, джаз-модерн, клубный танец позволяет зажигать на вечеринке под любую музыку.
-Качество: DVDRip
Формат: AVI
Видео кодек: DiVX
Аудио кодек: AC3
Видео: 416x304 (1.37:1), 25 fps, DivX Codec 5.x or 6.x, 849 kbps avg, 0.27 bit/pixel
Аудио: 44.100 kHz, AC3 Dolby Digital, 2 ch, 127.70 kbps avg-

Доп. информация

R'n'B, Hip-Hop New Style, Клубный танец

MediaInfo

Код: copyText_writeLink('this.parentNode.parentNode.nextSibling.nextSibling'); Общее
Полное имя : E:\Обучение\DVD_dance_lesson.avi
Формат : AVI
Формат/Информация : Audio Video Interleave
Профиль формата : OpenDML
Размер файла : 1,50 Гбайт
Продолжительность : 3 ч. 37 м.
Общий поток : 985 Кбит/сек
Видео
Идентификатор : 0
Формат : MPEG-4 Visual
Параметр BVOP формата : 1
Параметр QPel формата : Нет
Параметр GMC формата : Без точки перехода
Параметр матрицы формата : Default (H.263)
Режим смешивания : Сжатый битовый поток
Идентификатор кодека : DX50
Идентификатор кодека/Подсказка : DivX 5
Продолжительность : 3 ч. 37 м.
Битрейт : 781 Кбит/сек
Ширина : 416 пикселей
Высота : 304 пикселя
Соотношение сторон : 4:3
Частота кадров : 25,000 кадров/сек
Цветовое пространство : YUV
Субдискретизация насыщенности : 4:2:0
Битовая глубина : 8 бит
Тип развёртки : Прогрессивная
Метод сжатия : С потерями
Бит/(Пиксели*Кадры) : 0.247
Размер потока : 1,19 Гбайт (79%)
Библиотека кодирования : DivX 6.8.5 (UTC 2009-08-20)
Аудио
Идентификатор : 1
Формат : AC-3
Формат/Информация : Audio Coding 3
Расширение режима : CM (complete main)
Параметр Endianness формата : Big
Идентификатор кодека : 2000
Продолжительность : 3 ч. 37 м.
Вид битрейта : Постоянный
Битрейт : 128 Кбит/сек
Каналы : 2 канала
Расположение каналов : Front: L R
Частота : 44,1 КГц
Битовая глубина : 16 бит
Метод сжатия : С потерями
Размер потока : 199 Мбайт (13%)
Выравнивание : Соединение по промежуткам
Продолжительность промежутка : 1010 мс. (25,25 видеокадров)
- -

_________________
Показать сообщения:    

Текущее время: Сегодня 06:02

Часовой пояс: GMT



Вы не можете начинать темы
Вы не можете отвечать на сообщения
Вы не можете редактировать свои сообщения
Вы не можете удалять свои сообщения
Вы не можете голосовать в опросах
Вы не можете прикреплять файлы к сообщениям
Вы не можете скачивать файлы