Важное объявление!
У Нас Все раздачи мультитрекерные, при нуле пиров в релизах, можете смело вставать на закачку!
 
Автор Сообщение

димитри37

Стаж:
3 года 8 месяцев
Сообщений:
1237

Репутация: 127

[+] [-]
Вне форума [Профиль] [ЛС]

Стряпуха
Жанр: лирическая комедия
Год выпуска: 1965
Продолжительность: 01:06:49
Режиссёр: Эдмонд Кеосаян
В ролях: Светлана Светличная, Людмила Хитяева, Инна Чурикова, Константин Сорокин, Георгий Юматов, Иван Савкин, Людмила Марченко, Людмила Карауш, Владимир Высоцкий, Нина Никитина, Валентина Березуцкая, Григорий Михайлов, Зоя Фёдорова, Сергей Филиппов, Павел Шпрингфельд, Эдуард Абалов, Валерий Носик, Владимир Колокольцев, Владимир Сошальский, Владимир Дорофеев, Вера Бурлакова
Описание: Комбайнер Степан Казанец, влюбившийся в молодую вдову Павлину Хуторную, крепко получил от неё по голове половником. После скандальной истории, ставшей известной на весь Каневский район, красивая казачка покинула станицу и устроилась на полевом стане стряпухой. Казанец не мог страдать и жить вдали от любимой - и отправился следом...
Доп. информация: По мотивам одноименной пьесы Анатолия Софронова.
Сценарий: Анатолий Софронов
Оператор: Федор Добронравов
Художник: Виталий Гладников
Композитор: Борис Мокроусов
Тексты песен: Анатолий Софронов
Ограничения на просмотр: для любой зрительской аудитории

О звуке

К сожалению, в исходнике в трех местах на звуковой дорожке (00:03:40-00:09:00, 00:28:10-00:33:33, 00:46:15-00:56:30) присутствует заметный низкочастотный фон. Разумеется, сделавший запись исходника релизер (честь ему и хвала! ) никакого отношения к данному дефекту не имеет - такую копию показали по ТВ. В данном рипе это исправлено при помощи замены испорченных фрагментов на соответствующие фрагменты без фона, взятые с этого DVD.
Семпл исходника (с дефектом звука) - http://yadi.sk/d/9gEiqH3W31WSG
Семпл данного рипа (без дефекта звука) - http://yadi.sk/d/Stvamvyu31WVw
Качество видео: HDTVRip
Формат видео: AVI
Видео: 704x400 (1.76:1), 25 fps, XviD 64, 2205 kbps avg, 0.31 bit/pixel
Аудио: 48 kHz, MPEG Layer 3, 2 ch, 128.00 kbps avg, CBR

MI

Полное имя : Stryapuha.avi
Формат : AVI
Формат/Информация : Audio Video Interleave
Размер файла : 1,09 Гбайт
Продолжительность : 1 ч. 6 м.
Общий поток : 2343 Кбит/сек
Программа кодирования : VirtualDubMod 1.5.10.3 (build 2550/release)
Библиотека кодирования : VirtualDubMod build 2550/release
Видео
Идентификатор : 0
Формат : MPEG-4 Visual
Профиль формата : Advanced Simple@L5
Параметр BVOP формата : 2
Параметр QPel формата : Нет
Параметр GMC формата : Без точки перехода
Параметр матрицы формата : Выборочная
Идентификатор кодека : XVID
Идентификатор кодека/Подсказка : XviD
Продолжительность : 1 ч. 6 м.
Битрейт : 2205 Кбит/сек
Ширина : 704 пикселя
Высота : 400 пикселей
Соотношение сторон : 16:9
Частота кадров : 25,000 кадров/сек
Цветовое пространство : YUV
Субдискретизация насыщенности : 4:2:0
Битовая глубина : 8 бит
Тип развёртки : Прогрессивная
Метод сжатия : С потерями
Бит/(Пиксели*Кадры) : 0.313
Размер потока : 1,03 Гбайт (94%)
Библиотека кодирования : XviD 64
Аудио
Идентификатор : 1
Формат : MPEG Audio
Версия формата : Version 1
Профиль формата : Layer 3
Идентификатор кодека : 55
Идентификатор кодека/Подсказка : MP3
Продолжительность : 1 ч. 6 м.
Вид битрейта : Постоянный
Битрейт : 128 Кбит/сек
Каналы : 2 канала
Частота : 48,0 КГц
Метод сжатия : С потерями
Размер потока : 61,2 Мбайт (5%)
Выравнивание : Соединение по промежуткам
Продолжительность промежутка : 40 мс. (1,00 видеокадр)
Время предзагрузки промежутка : 504 мс.
Библиотека кодирования : LAME3.99r
Настройки программы : -m s -V 4 -q 3 -lowpass 17 -b 128

Сравнение

http://rutracker.org/forum/viewtopic.php?t=2890085 - с DVDRip (для справки)
http://screenshotcomparison.com/comparison/9965
Разные по формату исходники - полноэкранный (DVD) и широкоэкранный (HDTV).
Показать сообщения:    

Текущее время: Сегодня 17:31

Часовой пояс: GMT



Вы не можете начинать темы
Вы не можете отвечать на сообщения
Вы не можете редактировать свои сообщения
Вы не можете удалять свои сообщения
Вы не можете голосовать в опросах
Вы не можете прикреплять файлы к сообщениям
Вы не можете скачивать файлы