Важное объявление!
У Нас Все раздачи мультитрекерные, при нуле пиров в релизах, можете смело вставать на закачку!
 
Автор Сообщение

HUNTER

Стаж:
4 года 4 месяца
Сообщений:
56749

Репутация: 101

[+] [-]
Вне форума [Профиль] [ЛС]


Стрип дэнс. Искусство обольщения-Год выпуска: 2008
Страна: Россия
Сайт производителя: отсутствуeт
Тематика: танцы, стриптиз
Тип материала: обучающий
Продолжительность: 00:46:50
Автор: Денис Попов-Толмачев
Язык: Русский
Субтитры: отсутствуют-Описание: Здесь не готовят стриптизерш!
Стрип дэнс - это прежде всего красивый, пластичный танец, включающий в себя элементы классической, джазовой и современной хореографии. Он даст Вам возможность не только почувствовать себя в хорошей физической форме, сбросить лишние килограммы, но, прежде всего, ощутить себя "настоящей женщиной" - уверенной, чувственной, раскрепощенной.
МАРТЭ - это школа-студия танца для всех желающих стать здоровыми, красивыми, жизнерадостными, грациозными и уверенными в себе, независимо от возраста, танцевального опыта и способностей.
Творческий коллектив хореографов, выпускники ГИТИСа, Университета культуры и искусства, Академии хореографии Москвы, Академии Санкт-Петербург максимально учитывают современные тенденции и успешно совершенствуют профессиональное мастерство в международных танцпроектах России, Франции, Германии, США, стран Ближнего востока и других стран.
-Качество: DVDRip
Формат: AVI
Видео кодек: XviD
Аудио кодек: MP3
Видео: 704x512 (1.38:1), 25 fps, XviD MPEG-4 ~1745 kbps avg, 0.19 bit/pixel
Аудио: 48 kHz, MPEG Layer 3, 2 ch, ~320.00 kbps avg-

MediaInfo

Код: copyText_writeLink('this.parentNode.parentNode.nextSibling.nextSibling'); Общее
Полное имя : D:\обуч\Strip.Dens.Iskusstvo.obolshhenija.2008.Xvid.DVDRip.avi
Формат : AVI
Формат/Информация : Audio Video Interleave
Размер файла : 695 Мбайт
Продолжительность : 46 м.
Общий поток : 2076 Кбит/сек
Библиотека кодирования : VirtualDub build 16297/release
Видео
Идентификатор : 0
Формат : MPEG-4 Visual
Профиль формата : Advanced Simple@L5
Параметр BVOP формата : 1
Параметр QPel формата : Нет
Параметр GMC формата : Без точки перехода
Параметр матрицы формата : Default (H.263)
Режим смешивания : Сжатый битовый поток
Идентификатор кодека : XVID
Идентификатор кодека/Подсказка : XviD
Продолжительность : 46 м.
Битрейт : 1746 Кбит/сек
Ширина : 704 пикселя
Высота : 512 пикселей
Соотношение сторон : 1,375
Частота кадров : 25,000 кадров/сек
Цветовое пространство : YUV
Субдискретизация насыщенности : 4:2:0
Битовая глубина : 8 бит
Тип развёртки : Прогрессивная
Метод сжатия : С потерями
Бит/(Пиксели*Кадры) : 0.194
Размер потока : 585 Мбайт (84%)
Библиотека кодирования : XviD 1.1.0 (UTC 2005-11-22)
Аудио
Идентификатор : 1
Формат : MPEG Audio
Версия формата : Version 1
Профиль формата : Layer 3
Режим : Joint stereo
Идентификатор кодека : 55
Идентификатор кодека/Подсказка : MP3
Продолжительность : 46 м.
Вид битрейта : Постоянный
Битрейт : 320 Кбит/сек
Каналы : 2 канала
Частота : 48,0 КГц
Метод сжатия : С потерями
Размер потока : 107 Мбайт (15%)
Выравнивание : Соединение по промежуткам
Продолжительность промежутка : 40 мс. (1,00 видеокадр)
Время предзагрузки промежутка : 504 мс.
Библиотека кодирования : LAME3.97 (beta)

Скриншоты

-

_________________
Показать сообщения:    

Текущее время: Сегодня 23:02

Часовой пояс: GMT



Вы не можете начинать темы
Вы не можете отвечать на сообщения
Вы не можете редактировать свои сообщения
Вы не можете удалять свои сообщения
Вы не можете голосовать в опросах
Вы не можете прикреплять файлы к сообщениям
Вы не можете скачивать файлы