Важное объявление!
У Нас Все раздачи мультитрекерные, при нуле пиров в релизах, можете смело вставать на закачку!
 
Автор Сообщение

димитри37

Стаж:
3 года 9 месяцев
Сообщений:
1237

Репутация: 127

[+] [-]
Вне форума [Профиль] [ЛС]

Страсть / Passion
Страна: Германия, Франция
Студия: SBS Productions, Integral Film, France 2 Cinema
Жанр: триллер, драма, криминал, детектив
Год выпуска: 2012
Продолжительность: 01:41:03
Перевод: Любительский (двухголосый закадровый) - (Green Tea)
Cубтитры: нет
Режиссер: Брайан Де Пальма / Brian De Palma
В ролях: Рэйчел МакАдамс, Нуми Рапас, Каролина Херфурт, Пол Андерсон, Райнер Бок, Беньямин Задлер, Майкл Рочопф, Макс Урлахер, Доминик Рааке, Тристан В. Пюттер
Описание: История двух девушек, топ-менеджеров крупной компании. Они крутили роман с одним и тем же сотрудником, причем обе одновременно уважают и ненавидят друг друга. В один прекрасный день одна сильно оскорбляет другую перед всеми коллегами… девушка решает отомстить.


Качество видео: BDRip
Формат видео: AVI
Видео: XviD, 720x384 (1.88:1), 23.976 fps, 1607 kbps avg, 0.24 bit/pixel
Аудио: AC3 Dolby Digital, 48 kHz, 448 kbps, 3/2 (L,C,R,l,r) + LFE ch

Скриншоты

С названием

Отчет MediaInfo

Код:
Общее
Полное имя                       : Strast’_2012_BDRip_DVO_by_Dalemake.avi
Формат                           : AVI
Формат/Информация                : Audio Video Interleave
Размер файла                     : 1,46 Гбайт
Продолжительность                : 1 ч. 41 м.
Общий поток                      : 2065 Кбит/сек
Название фильма                  : Strast’_2012_BDRip_DVO_by_Dalemake
Режиссёр                         : rip by Dalemake
Жанр                             : Drama/Crime/Thriller
Программа кодирования            : VirtualDubMod 1.5.10.3 | www.virtualdub-fr.org || (build 2550/release)
Формат оригинала/Имя             : Passion / Brian De Palma / 2012
Примечание                       : rusDVO [Green Tea]
Видео
Идентификатор                    : 0
Формат                           : MPEG-4 Visual
Профиль формата                  : Advanced Simple@L5
Параметр BVOP формата            : 1
Параметр QPel формата            : Нет
Параметр GMC формата             : Без точки перехода
Параметр матрицы формата         : Выборочная
Идентификатор кодека             : XVID
Идентификатор кодека/Подсказка   : XviD
Продолжительность                : 1 ч. 41 м.
Битрейт                          : 1608 Кбит/сек
Ширина                           : 720 пикселей
Высота                           : 384 пикселя
Соотношение сторон               : 1,875
Частота кадров                   : 23,976 кадра/сек
Цветовое пространство            : YUV
Субдискретизация насыщенности    : 4:2:0
Битовая глубина                  : 8 бит
Тип развёртки                    : Прогрессивная
Метод сжатия                     : С потерями
Бит/(Пиксели*Кадры)              : 0.243
Размер потока                    : 1,13 Гбайт (78%)
Библиотека кодирования           : XviD 73
Аудио
Идентификатор                    : 1
Формат                           : AC-3
Формат/Информация                : Audio Coding 3
Расширение режима                : CM (complete main)
Идентификатор кодека             : 2000
Продолжительность                : 1 ч. 41 м.
Вид битрейта                     : Постоянный
Битрейт                          : 448 Кбит/сек
Каналы                           : 6 каналов
Расположение каналов             : Front: L C R, Side: L R, LFE
Частота                          : 48,0 КГц
Битовая глубина                  : 16 бит
Метод сжатия                     : С потерями
Размер потока                    : 324 Мбайт (22%)
Выравнивание                     : Разделение по промежуткам
Продолжительность промежутка     : 42  мс. (1,00 видеокадр)
Время предзагрузки промежутка    : 500  мс.
Источник:
Показать сообщения:    

Текущее время: Сегодня 18:01

Часовой пояс: GMT



Вы не можете начинать темы
Вы не можете отвечать на сообщения
Вы не можете редактировать свои сообщения
Вы не можете удалять свои сообщения
Вы не можете голосовать в опросах
Вы не можете прикреплять файлы к сообщениям
Вы не можете скачивать файлы