Важное объявление!
У Нас Все раздачи мультитрекерные, при нуле пиров в релизах, можете смело вставать на закачку!
 
Автор Сообщение

HUNTER

Стаж:
4 года 4 месяца
Сообщений:
56749

Репутация: 101

[+] [-]
Вне форума [Профиль] [ЛС]

Странствия Салливана / Sullivan's Travels
Страна: США
Жанр: комедия, приключения
Год выпуска: 1941
Продолжительность: 01:31:04
Перевод: Профессиональный (многоголосый закадровый) Селена Интернешнл
Cубтитры: английские
Оригинальная аудиодорожка: английский-Режиссер: Престон Стёрджес / Preston Sturges
В ролях: Джоэл МакКри, Вероника Лэйк, Роберт Уорвик, Уильям Демарест, Франклин Пэнгборн, Портер Холл, Байрон Фолджер, Маргарет Хэйес, Роберт Грег, Эрик Блор, Торбен Мейер, Виктор Потель, Ричард Уэбб, Чарльз Р. Мур, Альмира Сешнс, Эстер Ховард, Фрэнк Моран, Джордж Ренавент, Гарри Розенталь, Аль Бридж, Джимми Конлин, Роберт Уинклер, Чик Коллинз, Джимми Данди, Инес Хэтчетт
Описание: Джон Ллойд Салливан, самый преуспевающий комедиограф Голливуда, собирается впервые снять серьёзный фильм. Он верит, что в мире сегодня столько страданий и горя, что людям не до смеха. В поисках сюжета для свой новой картины «О, где же ты, брат!», Джон решает с одной монетой в кармане и в нищенском «рванье» проехать всю страну, чтобы в полной мере осознать, что такое бедность и лишения...
IMDb || КиноПоиск-Тип релиза: BDRemux 1080p
Контейнер: MKV
Видео: MPEG-4 AVC Video, 1920x1080 at 23.976 fps, 35018 kbps
Аудио#1: Russian: 48 kHz, AC3, 2.0 ch, 192 kbps
Аудио#2: English: 48 kHz, FLAC, 1.0 ch, 636 kbps
Аудио#3: English: 48 kHz, AC3, 1.0 ch, 192 kbps | Commentary
Формат субтитров: softsub (SRT)
Сэмпл

Дополнительно

За перевод Селена Интернешнл спасибо Lyu.

MediaInfo

General
Unique ID : 204334830104758762698509286090012886186 (0x99B974F0B6C5318496BC836FA92C04AA)
Complete name : Sullivan's.Travels.1941.Criterion.BDRemux. rutracker.mkv
Format : Matroska
Format version : Version 2
File size : 22.9 GiB
Duration : 1h 31mn
Overall bit rate mode : Variable
Overall bit rate : 36.0 Mbps
Movie name : Release for RuTracker
Writing application : mkvmerge v5.0.1 ('Es ist Sommer') built on Nov 6 2011 16:23:40
Writing library : libebml v1.2.2 + libmatroska v1.3.0
Video
ID : 1
Format : AVC
Format/Info : Advanced Video Codec
Format profile : High@L4.1
Format settings, CABAC : Yes
Format settings, ReFrames : 4 frames
Codec ID : V_MPEG4/ISO/AVC
Duration : 1h 31mn
Bit rate mode : Variable
Maximum bit rate : 37.0 Mbps
Width : 1 920 pixels
Height : 1 080 pixels
Display aspect ratio : 16:9
Frame rate mode : Constant
Frame rate : 23.976 fps
Color space : YUV
Chroma subsampling : 4:2:0
Bit depth : 8 bits
Scan type : Progressive
Title : Sullivan's.Travels.1941.Criterion.BDRemux. rutracker
Language : English
Default : Yes
Forced : No
Audio #1
ID : 2
Format : AC-3
Format/Info : Audio Coding 3
Mode extension : CM (complete main)
Format settings, Endianness : Big
Codec ID : A_AC3
Duration : 1h 31mn
Bit rate mode : Constant
Bit rate : 192 Kbps
Channel(s) : 2 channels
Channel positions : Front: L R
Sampling rate : 48.0 KHz
Bit depth : 16 bits
Compression mode : Lossy
Stream size : 125 MiB (1%)
Language : Russian
Default : Yes
Forced : No
Audio #2
ID : 3
Format : FLAC
Format/Info : Free Lossless Audio Codec
Codec ID : A_FLAC
Duration : 1h 31mn
Bit rate mode : Variable
Channel(s) : 1 channel
Sampling rate : 48.0 KHz
Bit depth : 24 bits
Writing library : libFLAC 20080709 (UTC 2008-07-09)
Language : English
Default : No
Forced : No
Audio #3
ID : 4
Format : AC-3
Format/Info : Audio Coding 3
Mode extension : CM (complete main)
Format settings, Endianness : Big
Codec ID : A_AC3
Duration : 1h 31mn
Bit rate mode : Constant
Bit rate : 192 Kbps
Channel(s) : 1 channel
Channel positions : Front: C
Sampling rate : 48.0 KHz
Bit depth : 16 bits
Compression mode : Lossy
Stream size : 125 MiB (1%)
Title : commentary
Language : English
Default : No
Forced : No
Text
ID : 5
Format : UTF-8
Codec ID : S_TEXT/UTF8
Codec ID/Info : UTF-8 Plain Text
Language : English
Default : No
Forced : No
Menu
00:00:00.000 : en:"With a little sex in it"
00:07:37.832 : en:The butler's advice
00:11:52.837 : en:The great chase
00:17:25.753 : en:Dead man's clothes
00:19:38.135 : en:The great escape
00:22:59.169 : en:The Girl
00:27:30.940 : en:All washed up
00:32:42.460 : en:"You must have a swimming pool"
00:36:43.242 : en:All aboard
00:41:55.513 : en:"Better with a girl"
00:45:54.793 : en:The Busy Bee
00:48:59.645 : en:Back where they belong
00:51:19.618 : en:Hobos once again
00:57:54.888 : en:Sully's married
01:00:59.113 : en:Greed
01:04:59.228 : en:The soles of his shoes
01:08:51.919 : en:Six years
01:12:46.111 : en:A prisoner
01:18:15.524 : en:Picture show
01:23:53.403 : en:The plot needs a twist
01:26:16.337 : en:"Because you were dead!"
01:28:23.631 : en:A comedy

Скриншоты


_________________
Показать сообщения:    

Текущее время: Сегодня 19:38

Часовой пояс: GMT



Вы не можете начинать темы
Вы не можете отвечать на сообщения
Вы не можете редактировать свои сообщения
Вы не можете удалять свои сообщения
Вы не можете голосовать в опросах
Вы не можете прикреплять файлы к сообщениям
Вы не можете скачивать файлы