Важное объявление!
У Нас Все раздачи мультитрекерные, при нуле пиров в релизах, можете смело вставать на закачку!
 
Автор Сообщение

Роман Беринг

Стаж:
3 года 8 месяцев
Сообщений:
12
Вне форума [Профиль] [ЛС]

Странный Томас / Odd Thomas-
Страна: США
Жанр: триллер, детектив
Год выпуска: 2013
Продолжительность: 01:32:41
Перевод: Любительский (двухголосый закадровый) den904, DeadSno Перевод Janetta
Cубтитры: нет
Оригинальная аудиодорожка: нет-Режиссер: Стивен Соммерс / Stephen Sommers
В ролях: Антон Ельчин, Эшли Соммерс, Леонор Варела, Мэттью Пейдж, Кэйси Мессер, Берни Леннинг, Нико Торторелла, Уиллем Дефо, Кайл МакКивер, Кармен Корли-Описание: Главный герой наделен даром (или проклятием) видеть мертвецов. Каждый их визит становится началом очередной охоты на убийцу — призраки ведут Томаса на помощь тем, кому еще рано расставаться с жизнью. О способности героя знают только самые близкие друзья и любимая девушка. С их помощью ему предстоит отвести большую беду от маленького городка в центре пустыни Мохаве.- -Качество видео: DVDRip
Формат видео: AVI
Видео: 720x304 (2.37:1), 25 fps, XviD build 50 ~1657 kbps avg, 0.30 bit/pixel
Аудио: 48 kHz, AC3 Dolby Digital, 3/2 (L,C,R,l,r) + LFE ch, ~448 kbps

MediaInfo

Общее
Полное имя : F:Odd.Thomas.2013.DVDRip.1400MB.avi
Формат : AVI
Формат/Информация : Audio Video Interleave
Размер файла : 1,37 Гбайт
Продолжительность : 1 ч. 32 м.
Общий поток : 2115 Кбит/сек
Программа кодирования : VirtualDubMod 1.5.10.2 (build 2540/release)
Библиотека кодирования : VirtualDubMod build 2540/release
Видео
Идентификатор : 0
Формат : MPEG-4 Visual
Профиль формата : Advanced Simple@L5
Параметр BVOP формата : 1
Параметр QPel формата : Нет
Параметр GMC формата : Без точки перехода
Параметр матрицы формата : Default (MPEG)
Идентификатор кодека : XVID
Идентификатор кодека/Подсказка : XviD
Продолжительность : 1 ч. 32 м.
Битрейт : 1658 Кбит/сек
Ширина : 720 пикс.
Высота : 304 пикс.
Соотношение сторон : 2,35:1
Частота кадров : 25,000 кадр/сек
Цветовое пространство : YUV
Подвыборка цветности : 4:2:0
Битовая глубина : 8 бит
Тип развёртки : Прогрессивная
Метод сжатия : С потерями
Бит/(Пиксели*Кадры) : 0.303
Размер потока : 1,07 Гбайт (78%)
Библиотека кодирования : XviD 1.2.1 (UTC 2008-12-04)
Аудио
Идентификатор : 1
Формат : AC-3
Формат/Информация : Audio Coding 3
Расширение режима : CM (complete main)
Идентификатор кодека : 2000
Продолжительность : 1 ч. 32 м.
Вид битрейта : Постоянный
Битрейт : 448 Кбит/сек
Каналы : 6 каналов
Расположение каналов : Front: L C R, Side: L R, LFE
Частота : 48,0 КГц
Битовая глубина : 16 бит
Метод сжатия : С потерями
Размер потока : 297 Мбайт (21%)
Выравнивание : Разделение по промежуткам
Продолжительность промежутка : 40 мс. (1,00 видеокадр)
Время предзагрузки промежутка : 500 ms

Скриншот c названием фильма

Скриншоты

-Источник:
Показать сообщения:    

Текущее время: Сегодня 04:45

Часовой пояс: GMT



Вы не можете начинать темы
Вы не можете отвечать на сообщения
Вы не можете редактировать свои сообщения
Вы не можете удалять свои сообщения
Вы не можете голосовать в опросах
Вы не можете прикреплять файлы к сообщениям
Вы не можете скачивать файлы