Важное объявление!
У Нас Все раздачи мультитрекерные, при нуле пиров в релизах, можете смело вставать на закачку!
 
Автор Сообщение

HUNTER

Стаж:
4 года 4 месяца
Сообщений:
56798

Репутация: 101

[+] [-]
Вне форума [Профиль] [ЛС]

Смешно о любви / Funny about love
-Страна: США
Жанр: комедия, мелодрама
Год выпуска: 1990
Продолжительность: 01:31:41-Перевод 1: Профессиональный (двухголосый закадровый) Paramount Channel
Перевод 2: Профессиональный (двухголосый закадровый)
Cубтитры: английские
Оригинальная аудиодорожка: английский-Режиссер: Леонард Нимой / Leonard Nimoy-В ролях: Джин Уайлдер, Кристина Лахти, Мэри Стюарт Мастерсон, Сьюзан Раттэн, Роберт Проски, Стивен Тоболовски-Описание:
Если в главной роли Джин Уайлдер, то уже ясно, что фильм "о любви" будет смешным. Нежная, романтическая комедия рассказывает о Даффи Бергмане (Уайлдер), известном мультипликаторе, который внезапно почувствовал приближение старости. Даффи хочет ребенка. А когда в браке ему это не удается, он очень комично ищет реализацию своего навязчивого желания на стороне...-Сэмпл: Скачать-Тип релиза: WEB-DL 720p
Контейнер: MKV-Видео: 1280x718 (16:9); 3 963 Kbps; 23.976 fps; 0.180 bpp
Аудио 1: Russian; AC3; 48.0 KHz; 2ch; 192 Kbps MVO Paramount Channel
Аудио 2: Russian; AC3; 48.0 KHz; 2ch; 192 Kbps MVO
Аудио 3: English; AC3; 48.0 KHz; 6ch; 384 Kbps

MediaInfo

Format : Matroska
Format version : Version 4 / Version 2
File size : 3.42 GiB
Duration : 1h 41mn
Overall bit rate : 4 827 Kbps
Movie name : Funny.About.Love.1990.720p.WEB-DL.DD5.1.H264-FGT
Encoded date : UTC 2015-08-06 07:43:39
Writing application : mkvmerge v8.1.0 ('Psychedelic Postcard') 64bit
Writing library : libebml v1.3.1 + libmatroska v1.4.2
Attachements : poster.jpg
DURATION : 01:36:00.007000000
NUMBER_OF_FRAMES : 1007
NUMBER_OF_BYTES : 42457
_STATISTICS_WRITING_APP : mkvmerge v8.1.0 ('Psychedelic Postcard') 64bit
_STATISTICS_WRITING_DATE_UTC : 2015-08-06 07:43:39
_STATISTICS_TAGS : BPS DURATION NUMBER_OF_FRAMES NUMBER_OF_BYTES
Video
ID : 1
Format : AVC
Format/Info : Advanced Video Codec
Format profile : High@L3.1
Format settings, CABAC : No
Format settings, ReFrames : 2 frames
Codec ID : V_MPEG4/ISO/AVC
Duration : 1h 41mn
Bit rate : 3 963 Kbps
Width : 1 280 pixels
Height : 718 pixels
Display aspect ratio : 16:9
Frame rate mode : Constant
Frame rate : 23.976 fps
Color space : YUV
Chroma subsampling : 4:2:0
Bit depth : 8 bits
Scan type : Progressive
Bits/(Pixel*Frame) : 0.180
Stream size : 2.81 GiB (82%)
Title : Funny.About.Love.1990.720p.WEB-DL.DD5.1.H264-FGT
Language : English
Default : Yes
Forced : No
Color primaries : BT.709
Transfer characteristics : BT.709
Matrix coefficients : BT.709
Audio #1
ID : 2
Format : AC-3
Format/Info : Audio Coding 3
Mode extension : CM (complete main)
Format settings, Endianness : Big
Codec ID : A_AC3
Duration : 1h 41mn
Bit rate mode : Constant
Bit rate : 192 Kbps
Channel(s) : 2 channels
Channel positions : Front: L R
Sampling rate : 48.0 KHz
Bit depth : 16 bits
Compression mode : Lossy
Stream size : 139 MiB (4%)
Title : MVO Paramount Channel
Language : Russian
Default : Yes
Forced : No
Audio #2
ID : 3
Format : AC-3
Format/Info : Audio Coding 3
Mode extension : CM (complete main)
Format settings, Endianness : Big
Codec ID : A_AC3
Duration : 1h 41mn
Bit rate mode : Constant
Bit rate : 192 Kbps
Channel(s) : 2 channels
Channel positions : Front: L R
Sampling rate : 48.0 KHz
Bit depth : 16 bits
Compression mode : Lossy
Stream size : 139 MiB (4%)
Title : MVO
Language : Russian
Default : No
Forced : No
Audio #3
ID : 4
Format : AC-3
Format/Info : Audio Coding 3
Mode extension : CM (complete main)
Format settings, Endianness : Big
Codec ID : A_AC3
Duration : 1h 41mn
Bit rate mode : Constant
Bit rate : 384 Kbps
Channel(s) : 6 channels
Channel positions : Front: L C R, Side: L R, LFE
Sampling rate : 48.0 KHz
Bit depth : 16 bits
Compression mode : Lossy
Stream size : 279 MiB (8%)
Title : Funny.About.Love.1990.720p.WEB-DL.DD5.1.H264-FGT
Language : English
Default : No
Forced : No
Text
ID : 5
Format : UTF-8
Codec ID : S_TEXT/UTF8
Codec ID/Info : UTF-8 Plain Text
Language : English
Default : No
Forced : No
Menu
00:00:00.000 : en:Book Signing
00:08:01.000 : en:Let's Play House
00:18:17.000 : en:Making A Baby
00:33:48.000 : en:Funeral
00:39:43.000 : en:Head Chef
00:45:20.000 : en:She's Gone
00:52:19.000 : en:Love Goddesses
00:58:50.000 : en:Real Divorce
01:07:43.000 : en:May/December
01:17:16.000 : en:It Wasn't Love
01:26:50.000 : en:Baby Makes Three

Скриншоты


_________________
Показать сообщения:    

Текущее время: Сегодня 08:14

Часовой пояс: GMT



Вы не можете начинать темы
Вы не можете отвечать на сообщения
Вы не можете редактировать свои сообщения
Вы не можете удалять свои сообщения
Вы не можете голосовать в опросах
Вы не можете прикреплять файлы к сообщениям
Вы не можете скачивать файлы