Важное объявление!
У Нас Все раздачи мультитрекерные, при нуле пиров в релизах, можете смело вставать на закачку!
 
Автор Сообщение

HUNTER

Стаж:
4 года 4 месяца
Сообщений:
56790

Репутация: 101

[+] [-]
Вне форума [Профиль] [ЛС]

Страна Банд: Расовые Войны (History Channel) / Gangland: Race Wars (History Channel)
Год выпуска: 2007
Страна: США
Жанр: Документальный, криминальный
Продолжительность: 00:44:26
Перевод: Одноголосый закадровый
Русские субтитры: нет
Режиссер: History Channel
Описание: Пристанище для 900 уличных банд и более 80000 бандитов – все это Лос-Анджелес. Этот город носит неофициальный статус “Мировой столицы преступных банд”. Территория дает власть и каждая банда в Лос-Анджелесе пытается расширить границы своего района всеми доступными способами. Начиная с 1990 года, ужасная тенденция разделяет банды Лос-Анжелеса по расовому признаку. Бандиты латиноамериканских банд нападают на простых чернокожих жителей в районах Харбор-Гейтвей, Хайленд-Парк и Фаэрстоун пытаясь “очистить” свою территорию от представителей соперничающей расы.
Доп. информация:
Перевод и озвучивание: Gopstarrr
Спонсоры перевода: (Ubica) и bandy213
Сэмпл: http://multi-up.com/871842
качество: SATRip
формат: AVI
Видео: DivX 5, 576x336, 16:9, 778kbps, 23.98fps
Аудио: MPEG Audio Layer 3, 192kbps, 44100Hz, stereo, 2 ch, Gopstarrr

MediaInfo

General
Format : AVI
Format/Info : Audio Video Interleave
File size : 312 MiB
Duration : 44mn 26s
Overall bit rate : 980 Kbps
Writing application : VirtualDubMod 1.5.10.2 (build 2540/release)
Writing library : VirtualDub build 30586/release
Video
ID : 0
Format : MPEG-4 Visual
Format settings, BVOP : Yes
Format settings, QPel : No
Format settings, GMC : No warppoints
Format settings, Matrix : Default (H.263)
Muxing mode : Packed bitstream
Codec ID : DX50
Codec ID/Hint : DivX 5
Duration : 44mn 25s
Bit rate : 779 Kbps
Width : 576 pixels
Height : 336 pixels
Display aspect ratio : 16:9
Frame rate : 23.976 fps
Color space : YUV
Chroma subsampling : 4:2:0
Bit depth : 8 bits
Scan type : Progressive
Compression mode : Lossy
Bits/(Pixel*Frame) : 0.168
Stream size : 248 MiB (79%)
Writing library : DivX 6.8.5 (UTC 2009-08-20)
Audio
ID : 1
Format : MPEG Audio
Format version : Version 1
Format profile : Layer 3
Mode : Joint stereo
Codec ID : 55
Codec ID/Hint : MP3
Duration : 44mn 26s
Bit rate mode : Constant
Bit rate : 192 Kbps
Channel(s) : 2 channels
Sampling rate : 44.1 KHz
Compression mode : Lossy
Stream size : 61.0 MiB (20%)
Alignment : Split accross interleaves
Interleave, duration : 42 ms (1.00 video frame)
Interleave, preload duration : 500 ms

Скриншоты


_________________
Показать сообщения:    

Текущее время: Сегодня 12:18

Часовой пояс: GMT



Вы не можете начинать темы
Вы не можете отвечать на сообщения
Вы не можете редактировать свои сообщения
Вы не можете удалять свои сообщения
Вы не можете голосовать в опросах
Вы не можете прикреплять файлы к сообщениям
Вы не можете скачивать файлы