Важное объявление!
У Нас Все раздачи мультитрекерные, при нуле пиров в релизах, можете смело вставать на закачку!
 
Автор Сообщение

HUNTER

Стаж:
4 года 4 месяца
Сообщений:
56829

Репутация: 101

[+] [-]
Вне форума [Профиль] [ЛС]

Страна Банд: Кровь впускаем, кровь выпускаем / Gangland: Blood in, blood out
Год выпуска: 2007
Страна: США
Жанр: Документальный, криминальный
Продолжительность: 00:44:29
Перевод: Одноголосый закадровый
Русские субтитры: нет
Режиссер: History Channel
Описание: Нуэстра Фамилия – одна из господствующих латиноамериканских банд в Северной Калифорнии. По большей части Нуэстра Фамилия считается тюремной бандой. В сравнении с другими тюремными бандами Нуэстра Фамилия уступает им по численности внутри стен исправительных учреждений, но эту банду отличает от других ее дисциплина и суровые наказания за проступки. У нуэстра Фамилии имеются десятки тысяч преданных последователей на улицах, которых также называют Нортеньес или Северяне. Их основным конкурентом была и остается Мексиканская Мафия вместе с их последователями из Суреньес или Южан.
Доп. информация:
Перевод и озвучивание: Gopstarrr
Спонсор перевода: (Ubica)
Сэмпл: http://multi-up.com/929555
качество: SATRip
формат: AVI
Видео: DivX 5, 624x352, 16:9, 778kbps, 29.97fps
Аудио: MPEG Audio Layer 3, 192kbps, 48000Hz stereo, 2 ch, Gopstarr

MediaInfo

General
Format : AVI
Format/Info : Audio Video Interleave
File size : 313 MiB
Duration : 44mn 29s
Overall bit rate : 983 Kbps
Video
ID : 0
Format : MPEG-4 Visual
Format settings, BVOP : Yes
Format settings, QPel : No
Format settings, GMC : No warppoints
Format settings, Matrix : Default (H.263)
Codec ID : DX50
Codec ID/Hint : DivX 5
Duration : 44mn 29s
Bit rate : 779 Kbps
Width : 624 pixels
Height : 352 pixels
Display aspect ratio : 16:9
Frame rate : 29.970 fps
Color space : YUV
Chroma subsampling : 4:2:0
Bit depth : 8 bits
Scan type : Progressive
Compression mode : Lossy
Bits/(Pixel*Frame) : 0.118
Stream size : 248 MiB (79%)
Writing library : DivX 6.8.5 (UTC 2009-08-20)
Audio
ID : 1
Format : MPEG Audio
Format version : Version 1
Format profile : Layer 3
Mode : Joint stereo
Codec ID : 55
Codec ID/Hint : MP3
Duration : 44mn 29s
Bit rate mode : Constant
Bit rate : 192 Kbps
Channel(s) : 2 channels
Sampling rate : 48.0 KHz
Compression mode : Lossy
Stream size : 61.1 MiB (20%)
Alignment : Split accross interleaves
Interleave, duration : 33 ms (1.00 video frame)
Interleave, preload duration : 500 ms

Скриншоты


_________________
Показать сообщения:    

Текущее время: Сегодня 17:28

Часовой пояс: GMT



Вы не можете начинать темы
Вы не можете отвечать на сообщения
Вы не можете редактировать свои сообщения
Вы не можете удалять свои сообщения
Вы не можете голосовать в опросах
Вы не можете прикреплять файлы к сообщениям
Вы не можете скачивать файлы