Важное объявление!
У Нас Все раздачи мультитрекерные, при нуле пиров в релизах, можете смело вставать на закачку!
 
Автор Сообщение

HUNTER

Стаж:
4 года 4 месяца
Сообщений:
56853

Репутация: 101

[+] [-]
Вне форума [Профиль] [ЛС]

Страна Банд: В Нации Камней до Мозга Костей / Gangland: Stone to the Bone
-Год выпуска: 2007
Страна: США
Жанр: Документальный, криминальный
Продолжительность: 00:44:49
Перевод: Одноголосый закадровый
Русские субтитры: нет
Режиссер: History Channel
Описание: Граффити, на которых можно прочесть "Город Страха", "Хладнокровный солдат Камней" и "Здесь правят Камни", нанесены практически на каждой стене Южной Части Чикаго. Эти надписи дело рук Нации Черного Камня - второй по величине уличной банды Чикаго. Эта банда обладает долгой и богатой историей благодаря своему основателю Джеффу Форту, который в 1987 году был обвинен в подготовке террористических актов против США при поддержке правительства Ливии. ФБР классифицировала эту банду как "террористическую угрозу" после событий 11 сентября.
Доп. информация: Перевод и озвучивание: Gopstarrr
Спонсоры перевода: (Ubica) и bandy213
Сэмпл: http://multi-up.com/902376
качество: SATRip
формат: AVI
Видео: DivX 5, 624x352, 16:9, 779kbps, 29.97fps
Аудио: MPEG Audio Layer 3, 192kbps, 44100Hz, stereo, 2 ch, Gopstarrr

MediaInfo

General
Format : AVI
Format/Info : Audio Video Interleave
File size : 315 MiB
Duration : 44mn 49s
Overall bit rate : 984 Kbps
Writing application : VirtualDubMod 1.5.10.2 (build 2540/release)
Writing library : VirtualDub build 30586/release
Video
ID : 0
Format : MPEG-4 Visual
Format settings, BVOP : Yes
Format settings, QPel : No
Format settings, GMC : No warppoints
Format settings, Matrix : Default (H.263)
Muxing mode : Packed bitstream
Codec ID : DX50
Codec ID/Hint : DivX 5
Duration : 44mn 49s
Bit rate : 780 Kbps
Width : 624 pixels
Height : 352 pixels
Display aspect ratio : 16:9
Frame rate : 29.970 fps
Color space : YUV
Chroma subsampling : 4:2:0
Bit depth : 8 bits
Scan type : Progressive
Compression mode : Lossy
Bits/(Pixel*Frame) : 0.118
Stream size : 250 MiB (79%)
Writing library : DivX 6.8.5 (UTC 2009-08-20)
Audio
ID : 1
Format : MPEG Audio
Format version : Version 1
Format profile : Layer 3
Mode : Joint stereo
Codec ID : 55
Codec ID/Hint : MP3
Duration : 44mn 49s
Bit rate mode : Constant
Bit rate : 192 Kbps
Channel(s) : 2 channels
Sampling rate : 44.1 KHz
Compression mode : Lossy
Stream size : 61.6 MiB (20%)
Alignment : Split accross interleaves
Interleave, duration : 33 ms (1.00 video frame)
Interleave, preload duration : 500 ms

Скриншоты

отредактировал SergeyJD

_________________
Показать сообщения:    

Текущее время: Сегодня 11:49

Часовой пояс: GMT



Вы не можете начинать темы
Вы не можете отвечать на сообщения
Вы не можете редактировать свои сообщения
Вы не можете удалять свои сообщения
Вы не можете голосовать в опросах
Вы не можете прикреплять файлы к сообщениям
Вы не можете скачивать файлы
Наши партнеры: интернет магазин Ивановского трикотажа textilla.ru