Важное объявление!
У Нас Все раздачи мультитрекерные, при нуле пиров в релизах, можете смело вставать на закачку!
 
Автор Сообщение

HUNTER

Стаж:
4 года 4 месяца
Сообщений:
56848

Репутация: 101

[+] [-]
Вне форума [Профиль] [ЛС]

-Стив Джобс / Steve Jobs
«Can a great man be a good man?»-
-Страна: США
Жанр: Драма, Биография
Год выпуска: 2015
Продолжительность: 02:02:21-Перевод: Профессиональный (дублированный) iTunes
Cубтитры: Русские, Английские
Оригинальная аудиодорожка: Английская-Режиссер: Дэнни Бойл / Danny Boyle-В ролях: Майкл Фассбендер, Сет Роген, Джефф Дэниелс, Кейт Уинслет, Майкл Стулбарг, Кэтрин Уотерстон, Перла Аней-Жардине, Рипли Собо, Макензи Мосс, Сара Снук, Джон Ортис, Адам Шапиро, Джон Стин, Стэн Рот, Михран Слуджиан, Роберт Энтони Питерс, Норин Ли, Гэйл Фентон, Карен Кан, Лили Танг Кристал-Описание: История жизни одного из самых выдающихся умов планеты, основателя компании Apple, Стива Джобса.- - -Тип релиза: BDRip 1080p
Контейнер: MKV-Видео: MPEG-4 AVC, 1920x800 (2.40:1), 23.976 fps, ~18200 kbps avg, 0.493 bit/pixel
Аудио 1: 48 kHz, AC3 Dolby Digital, 3/2 (L,C,R,l,r) + LFE ch, ~384 kbps avg
Аудио 2: 48 kHz, DTS, 3/2 (L,C,R,l,r) + LFE ch, ~1509 kbps avg-

MediaInfo

Complete name : D:\РАЗДАЧИ\Steve Jobs (2015) BDRip 1080p.mkv
Format : Matroska
Format version : Version 2
File size : 17.5 GiB
Duration : 2h 2mn
Overall bit rate : 20.5 Mbps
Movie name : Steve Jobs (2015) BDRip 1080p
Encoded date : UTC 2016-02-26 14:15:00
Writing application : mkvmerge v3.0.0 ('Hang up your Hang-Ups') built on Dec 12 2009 15:20:35
Writing library : libebml v0.7.9 + libmatroska v0.8.1
Cover : Yes
Video
ID : 1
Format : AVC
Format/Info : Advanced Video Codec
Format profile : High@L4.1
Format settings, CABAC : Yes
Format settings, ReFrames : 5 frames
Codec ID : V_MPEG4/ISO/AVC
Duration : 2h 2mn
Bit rate : 18.2 Mbps
Nominal bit rate : 15.2 Mbps
Width : 1 920 pixels
Height : 800 pixels
Display aspect ratio : 2.40:1
Frame rate mode : Constant
Frame rate : 23.976 fps
Color space : YUV
Chroma subsampling : 4:2:0
Bit depth : 8 bits
Scan type : Progressive
Bits/(Pixel*Frame) : 0.493
Stream size : 15.5 GiB (89%)
Writing library : x264 core 148 r2665+53 6629127 t_mod_Custom [8-bit@all X86_64]
Encoding settings : cabac=1 / ref=5 / deblock=1:-3:-3 / analyse=0x3:0x133 / me=tesa / subme=10 / psy=1 / fade_compensate=0.00 / psy_rd=1.00:0.05 / mixed_ref=1 / me_range=24 / chroma_me=1 / trellis=2 / 8x8dct=1 / cqm=0 / deadzone=21,11 / fast_pskip=0 / chroma_qp_offset=-1 / threads=12 / lookahead_threads=3 / sliced_threads=0 / nr=0 / decimate=0 / interlaced=0 / bluray_compat=0 / stitchable=1 / constrained_intra=0 / fgo=0 / bframes=10 / b_pyramid=2 / b_adapt=2 / b_bias=0 / direct=3 / weightb=1 / open_gop=0 / weightp=2 / keyint=250 / keyint_min=23 / scenecut=40 / intra_refresh=0 / rc=2pass / mbtree=0 / bitrate=15155 / ratetol=1.0 / qcomp=0.65 / qpmin=0:0:0 / qpmax=69:69:69 / qpstep=4 / cplxblur=20.0 / qblur=0.5 / ip_ratio=1.30 / pb_ratio=1.20 / aq=3:0.85 / aq-sensitivity=10.00 / aq-factor=1.00:1.00:1.00 / aq2=0 / aq3=0
Language : English
Default : No
Forced : No
Audio #1
ID : 2
Format : AC-3
Format/Info : Audio Coding 3
Mode extension : CM (complete main)
Format settings, Endianness : Big
Codec ID : A_AC3
Duration : 2h 2mn
Bit rate mode : Constant
Bit rate : 384 Kbps
Channel(s) : 6 channels
Channel positions : Front: L C R, Side: L R, LFE
Sampling rate : 48.0 KHz
Bit depth : 16 bits
Compression mode : Lossy
Stream size : 336 MiB (2%)
Title : iTunes
Language : Russian
Default : Yes
Forced : No
Audio #2
ID : 3
Format : DTS
Format/Info : Digital Theater Systems
Mode : 16
Format settings, Endianness : Big
Codec ID : A_DTS
Duration : 2h 2mn
Bit rate mode : Constant
Bit rate : 1 509 Kbps
Channel(s) : 6 channels
Channel positions : Front: L C R, Side: L R, LFE
Sampling rate : 48.0 KHz
Bit depth : 24 bits
Compression mode : Lossy
Stream size : 1.29 GiB (7%)
Title : Original
Language : English
Default : No
Forced : No
Text #1
ID : 4
Format : UTF-8
Codec ID : S_TEXT/UTF8
Codec ID/Info : UTF-8 Plain Text
Title : Russian
Language : Russian
Default : No
Forced : No
Text #2
ID : 5
Format : UTF-8
Codec ID : S_TEXT/UTF8
Codec ID/Info : UTF-8 Plain Text
Title : English
Language : English
Default : No
Forced : No
Menu
00:00:00.000 : en:00:00:00.000
00:04:52.417 : en:00:04:52.417
00:11:47.415 : en:00:11:47.415
00:15:56.205 : en:00:15:56.205
00:24:39.770 : en:00:24:39.770
00:29:00.322 : en:00:29:00.322
00:35:35.717 : en:00:35:35.717
00:41:45.336 : en:00:41:45.336
00:47:28.929 : en:00:47:28.929
00:52:04.538 : en:00:52:04.538
00:57:24.983 : en:00:57:24.983
01:01:17.799 : en:01:01:17.799
01:10:43.406 : en:01:10:43.406
01:13:47.423 : en:01:13:47.423
01:19:03.697 : en:01:19:03.697
01:25:57.694 : en:01:25:57.694
01:33:39.280 : en:01:33:39.280
01:42:26.432 : en:01:42:26.432
01:49:10.711 : en:01:49:10.711
01:58:14.462 : en:01:58:14.462

Скриншоты


_________________
Показать сообщения:    

Текущее время: Сегодня 22:25

Часовой пояс: GMT



Вы не можете начинать темы
Вы не можете отвечать на сообщения
Вы не можете редактировать свои сообщения
Вы не можете удалять свои сообщения
Вы не можете голосовать в опросах
Вы не можете прикреплять файлы к сообщениям
Вы не можете скачивать файлы
Наши партнеры: интернет магазин Ивановского трикотажа textilla.ru