Важное объявление!
У Нас Все раздачи мультитрекерные, при нуле пиров в релизах, можете смело вставать на закачку!
 
Автор Сообщение

HUNTER

Стаж:
4 года 4 месяца
Сообщений:
56733

Репутация: 101

[+] [-]
Вне форума [Профиль] [ЛС]

Девственно чистая память / Чистая страница / Clean Slate
Страна: США
Студия: Metro-Goldwyn-Mayer (MGM), Zanuck Company
Жанр: комедия, детектив
Год выпуска: 1994
Продолжительность: 01:42:26
Перевод 1: Профессиональный (двухголосый закадровый) НТВ+
Перевод 2: Профессиональный (многоголосый закадровый)
Перевод 3: Авторский (одноголосый закадровый) А. Михалев
Перевод 4: Авторский (одноголосый закадровый) А. Пронин
Cубтитры: английские
Оригинальная аудиодорожка: английский
Режиссер: Мик Джексон / Mick Jackson
В ролях: Дэйна Карви, Валерия Голино, Джеймс Эрл Джоунс, Кевин Поллак, Майкл Гэмбон, Майкл Мерфи, Джэйни Брук, Вито Ругинис, Оливия д'Або
Описание: Эксцентричная комедия. Главный герой, бывший полицейский, а ныне частный детектив, каждый день забывает, что было накануне. А происходят с ним весьма необычные вещи. В жизни его все перепуталось и переплелось в один жуткий клубок. Согласитесь, работать детективом и каждый день иметь дело с ФБР, полицией, убийцами, похитителями и мошенниками, страдая амнезией, дело нелегкое. И страшно себе представить, какая каша в личной жизни - имея в виду сложные взаимоотношения героя со слабым полом. (Иванов М.)
II Сэмпл II IMDB II
Доп. информация:
За многоголоску и дорогу с А. Михалевым спасибо IVH, за перевод А. Пронина спасибо edich2
Тип релиза: HDTV 1080i
Контейнер: MKV
Видео: AVC, 1920x1080, (16:9), 25.0fps, Bit rate 5929Kbps
Аудио 1: MP2, 48.0 KHz, 2ch., 192kbps, rus, dvo
Аудио 2: AC3, 48.0 KHz, 2ch., 192kbps, rus, mvo
Аудио 3: AC3, 48.0 KHz, 2ch., 192kbps, rus, avo
Аудио 4: AC3, 48.0 KHz, 2ch., 192kbps, rus, avo
Аудио 5: AC3, 48.0 KHz, 2ch., 192kbps, eng

MediaInfo

Общее
Уникальный идентификатор : 250057342981497327142285094848551634164 (0xBC1F4ADF10917EA5ACCAE02D680EC4F4)
Полное имя : E:\torrent\Clean.Slate.1994.HDTV.1080i.mkv
Формат : Matroska
Версия формата : Version 4 / Version 2
Размер файла : 5,03 Гбайт
Продолжительность : 1 ч. 42 м.
Общий поток : 7028 Кбит/сек
Дата кодирования : UTC 2014-07-02 00:33:50
Программа кодирования : mkvmerge v7.0.0 ('Where We Going') 64bit built on Jun 9 2014 15:16:27
Библиотека кодирования : libebml v1.3.0 + libmatroska v1.4.1
DURATION : 01:36:27.040000000
NUMBER_OF_FRAMES : 1246
NUMBER_OF_BYTES : 38195
_STATISTICS_WRITING_APP : mkvmerge v7.0.0 ('Where We Going') 64bit built on Jun 9 2014 15:16:27
_STATISTICS_WRITING_DATE_UTC : 2014-07-02 00:33:50
_STATISTICS_TAGS : BPS DURATION NUMBER_OF_FRAMES NUMBER_OF_BYTES
Видео
Идентификатор : 1
Формат : AVC
Формат/Информация : Advanced Video Codec
Профиль формата : High@L4.0
Параметр CABAC формата : Да
Параметр ReFrames формата : 3 кадра
Параметр GOP формата : M=4, N=32
Идентификатор кодека : V_MPEG4/ISO/AVC
Продолжительность : 1 ч. 42 м.
Битрейт : 5929 Кбит/сек
Ширина : 1920 пикселей
Высота : 1080 пикселей
Соотношение сторон : 16:9
Режим частоты кадров : Постоянный
Частота кадров : 25,000 кадров/сек
Стандарт вещания : Component
Цветовое пространство : YUV
Субдискретизация насыщенности : 4:2:0
Битовая глубина : 8 бит
Тип развёртки : Чересстрочная
Порядок развёртки : Верхнее поле первое
Бит/(Пиксели*Кадры) : 0.114
Размер потока : 4,24 Гбайт (84%)
Заголовок : Clean.Slate.1994.HDTV.1080i
Default : Да
Forced : Нет
Основные цвета : BT.709
Характеристики трансфера : BT.709
Коэффициенты матрицы : BT.709
Аудио #1
Идентификатор : 2
Формат : MPEG Audio
Версия формата : Version 1
Профиль формата : Layer 2
Идентификатор кодека : A_MPEG/L2
Идентификатор кодека/Подсказка : MP2
Продолжительность : 1 ч. 42 м.
Вид битрейта : Постоянный
Битрейт : 192 Кбит/сек
Каналы : 2 канала
Частота : 48,0 КГц
Метод сжатия : С потерями
Размер потока : 141 Мбайт (3%)
Заголовок : MP2_2ch_192Kbps_rus_dvo_NTV+
Язык : Russian
Default : Да
Forced : Нет
Аудио #2
Идентификатор : 3
Формат : AC-3
Формат/Информация : Audio Coding 3
Расширение режима : CM (complete main)
Параметр Endianness формата : Big
Идентификатор кодека : A_AC3
Продолжительность : 1 ч. 42 м.
Вид битрейта : Постоянный
Битрейт : 192 Кбит/сек
Каналы : 2 канала
Расположение каналов : Front: L R
Частота : 48,0 КГц
Битовая глубина : 16 бит
Метод сжатия : С потерями
Размер потока : 141 Мбайт (3%)
Заголовок : AC3_2ch_192Kbps_rus_mvo
Язык : Russian
Default : Нет
Forced : Нет
Аудио #3
Идентификатор : 4
Формат : AC-3
Формат/Информация : Audio Coding 3
Расширение режима : CM (complete main)
Параметр Endianness формата : Big
Идентификатор кодека : A_AC3
Продолжительность : 1 ч. 42 м.
Вид битрейта : Постоянный
Битрейт : 192 Кбит/сек
Каналы : 2 канала
Расположение каналов : Front: L R
Частота : 48,0 КГц
Битовая глубина : 16 бит
Метод сжатия : С потерями
Размер потока : 141 Мбайт (3%)
Заголовок : AC3_2ch_192Kbps_rus_avo_A. Mihalev
Язык : Russian
Default : Нет
Forced : Нет
Аудио #4
Идентификатор : 5
Формат : AC-3
Формат/Информация : Audio Coding 3
Расширение режима : CM (complete main)
Параметр Endianness формата : Big
Идентификатор кодека : A_AC3
Продолжительность : 1 ч. 42 м.
Вид битрейта : Постоянный
Битрейт : 192 Кбит/сек
Каналы : 2 канала
Расположение каналов : Front: L R
Частота : 48,0 КГц
Битовая глубина : 16 бит
Метод сжатия : С потерями
Размер потока : 141 Мбайт (3%)
Заголовок : AC3_2ch_192Kbps_rus_avo_A. Pronin
Язык : Russian
Default : Нет
Forced : Нет
Аудио #5
Идентификатор : 6
Формат : AC-3
Формат/Информация : Audio Coding 3
Расширение режима : CM (complete main)
Параметр Endianness формата : Big
Идентификатор кодека : A_AC3
Продолжительность : 1 ч. 42 м.
Вид битрейта : Постоянный
Битрейт : 192 Кбит/сек
Каналы : 2 канала
Расположение каналов : Front: L R
Частота : 48,0 КГц
Битовая глубина : 16 бит
Метод сжатия : С потерями
Размер потока : 141 Мбайт (3%)
Заголовок : AC3_2ch_192Kbps_original eng
Язык : English
Default : Нет
Forced : Нет
Текст
Идентификатор : 7
Формат : UTF-8
Идентификатор кодека : S_TEXT/UTF8
Идентификатор кодека/Информация : UTF-8 Plain Text
Заголовок : subtitle eng
Язык : English
Default : Нет
Forced : Нет

Скриншот с названием фильма

Скриншоты


Сравнение с DVD



_________________
Показать сообщения:    

Текущее время: Сегодня 03:52

Часовой пояс: GMT



Вы не можете начинать темы
Вы не можете отвечать на сообщения
Вы не можете редактировать свои сообщения
Вы не можете удалять свои сообщения
Вы не можете голосовать в опросах
Вы не можете прикреплять файлы к сообщениям
Вы не можете скачивать файлы