Важное объявление!
У Нас Все раздачи мультитрекерные, при нуле пиров в релизах, можете смело вставать на закачку!
 
Автор Сообщение

HUNTER

Стаж:
4 года 4 месяца
Сообщений:
56772

Репутация: 101

[+] [-]
Вне форума [Профиль] [ЛС]

Стеклянный ключ / The Glass Key
Страна: США
Жанр: криминальная драма, нуар, детектив
Год выпуска: 1942
Продолжительность: 01:25:29
Перевод 1: Профессиональный (многоголосый закадровый) СТС
Перевод 2: Профессиональный (двухголосый закадровый) РенТВ
Cубтитры: русские, английские
Оригинальная аудиодорожка: английский-Режиссер: Стюарт Хейслер / Stuart Heisler-В ролях: Брайан Донлеви, Вероника Лэйк, Алан Лэдд, Бонита Грэнвилл, Ричард Деннинг, Джозеф Каллейа, Уильям Бендикс, Фрэнсис Гиффорд, Дональд МакБрайд, Маргарет Хэйес-Описание: В ходе кампании за переизбрание, Пол Мэдвиг решает порвать с прошлым и отказаться от поддержки гангстеров, присоединившись к респектабельному реформисту Ральфу Генри. Вскоре сына мистера Генри находят мертвым. Между тем босс мафии использует свое влияние, чтобы вызвать у общественности подозрения в виновности Мэдвига.-Релиз:
| Рип от HaB-Качество видео: BDRip
Формат видео: MKV
Видео: 970x720 at 23.976 fps, x264@L4.1,17480 kbps
Аудио 1: Russian: 48 kHz, AC3, 2/0 (L,R) ch, ~192.00 kbps avg |Многоголосый закадровый, СТС|
Аудио 2: Russian: 48 kHz, AC3, 1/0 (C) ch, ~192.00 kbps avg |Двухголосый закадровый, РенТВ|
Аудио 3: English: 48 kHz/16-bit, FLAC 2.0, ~246.00 kbps avg- -

Дополнительно

Код:
Сохранены оригинальные чаптеры как на Blu-ray.
За дорожку СТС спасибо palmeiras, за дорожку РенТВ спасибо TFloater и Ultam.
За правку русских субтитров спасибо Elheym.

MediaInfo

Код:
Format                      : Matroska
Format version              : Version 4 / Version 2
File size                   : 10.8 GiB
Duration                    : 1 h 25 min
Overall bit rate mode       : Variable
Overall bit rate            : 18.1 Mb/s
Encoded date                : UTC 2016-08-23 14:22:02
Writing application         : mkvmerge v9.4.0 ('Knurl') 32bit
Writing library             : libebml v1.3.4 + libmatroska v1.4.5
Cover                       : Yes
Attachments                 : cover.jpg
Video
ID                          : 1
Format                      : AVC
Format/Info                 : Advanced Video Codec
Format profile              : High@L4
Format settings, CABAC      : Yes
Format settings, ReFrames   : 11 frames
Codec ID                    : V_MPEG4/ISO/AVC
Duration                    : 1 h 25 min
Bit rate                    : 17.5 Mb/s
Width                       : 970 pixels
Height                      : 720 pixels
Display aspect ratio        : 4:3
Frame rate mode             : Constant
Frame rate                  : 23.976 (24000/1001) FPS
Color space                 : YUV
Chroma subsampling          : 4:2:0
Bit depth                   : 8 bits
Scan type                   : Progressive
Bits/(Pixel*Frame)          : 1.044
Stream size                 : 10.4 GiB (97%)
Writing library             : x264 core 148 r2665kMod a01e339
Encoding settings           : cabac=1 / ref=11 / deblock=1:-3:-3 / analyse=0x3:0x133 / me=tesa / subme=11 / psy=1 / fade_compensate=0.00 / psy_rd=1.10:0.00 / mixed_ref=1 / me_range=16 / chroma_me=1 / trellis=2 / 8x8dct=1 / cqm=0 / deadzone=21,11 / fast_pskip=0 / chroma_qp_offset=-2 / threads=18 / lookahead_threads=4 / sliced_threads=0 / nr=0 / decimate=0 / interlaced=0 / bluray_compat=0 / constrained_intra=0 / fgo=0 / bframes=16 / b_pyramid=2 / b_adapt=2 / b_bias=0 / direct=3 / weightb=1 / open_gop=0 / weightp=2 / keyint=250 / keyint_min=23 / scenecut=40 / intra_refresh=0 / rc=crf / mbtree=0 / crf=20.8000 / qcomp=0.75 / qpmin=0 / qpmax=69 / qpstep=4 / ip_ratio=1.10 / pb_ratio=1.10 / aq=1:0.65
Language                    : English
Default                     : Yes
Forced                      : No
Audio #1
ID                          : 2
Format                      : AC-3
Format/Info                 : Audio Coding 3
Mode extension              : CM (complete main)
Format settings, Endianness : Big
Codec ID                    : A_AC3
Duration                    : 1 h 25 min
Bit rate mode               : Constant
Bit rate                    : 192 kb/s
Channel(s)                  : 2 channels
Channel positions           : Front: L R
Sampling rate               : 48.0 kHz
Frame rate                  : 31.250 FPS (1536 spf)
Compression mode            : Lossy
Stream size                 : 117 MiB (1%)
Title                       : Многоголосый закадровый, СТС
Language                    : Russian
Default                     : Yes
Forced                      : No
Audio #2
ID                          : 3
Format                      : AC-3
Format/Info                 : Audio Coding 3
Mode extension              : CM (complete main)
Format settings, Endianness : Big
Codec ID                    : A_AC3
Duration                    : 1 h 25 min
Bit rate mode               : Constant
Bit rate                    : 192 kb/s
Channel(s)                  : 1 channel
Channel positions           : Front: C
Sampling rate               : 48.0 kHz
Frame rate                  : 31.250 FPS (1536 spf)
Compression mode            : Lossy
Stream size                 : 117 MiB (1%)
Title                       : Двухголосый закадровый, РенТВ
Language                    : Russian
Default                     : No
Forced                      : No
Audio #3
ID                          : 4
Format                      : FLAC
Format/Info                 : Free Lossless Audio Codec
Codec ID                    : A_FLAC
Duration                    : 1 h 25 min
Bit rate mode               : Variable
Bit rate                    : 246 kb/s
Channel(s)                  : 2 channels
Channel positions           : Front: L R
Sampling rate               : 48.0 kHz
Frame rate                  : 11.719 FPS (4096 spf)
Bit depth                   : 16 bits
Stream size                 : 151 MiB (1%)
Writing library             : libFLAC 1.2.1 (UTC 2007-09-17)
Language                    : English
Default                     : No
Forced                      : No
Text #1
ID                          : 5
Format                      : UTF-8
Codec ID                    : S_TEXT/UTF8
Codec ID/Info               : UTF-8 Plain Text
Duration                    : 1 h 24 min
Bit rate                    : 121 b/s
Count of elements           : 1162
Stream size                 : 75.0 KiB (0%)
Language                    : Russian
Default                     : No
Forced                      : No
Text #2
ID                          : 6
Format                      : UTF-8
Codec ID                    : S_TEXT/UTF8
Codec ID/Info               : UTF-8 Plain Text
Duration                    : 1 h 23 min
Bit rate                    : 72 b/s
Count of elements           : 1079
Stream size                 : 44.1 KiB (0%)
Language                    : English
Default                     : No
Forced                      : No
Menu
00:00:00.000                : en:Chapter 1
00:03:11.733                : en:Chapter 2
00:08:19.332                : en:Chapter 3
00:13:33.854                : en:Chapter 4
00:20:11.543                : en:Chapter 5
00:23:14.851                : en:Chapter 6
00:27:16.551                : en:Chapter 7
00:33:23.376                : en:Chapter 8
00:37:38.547                : en:Chapter 9
00:44:08.228                : en:Chapter 10
00:51:50.774                : en:Chapter 11
01:00:15.194                : en:Chapter 12
01:03:50.952                : en:Chapter 13
01:07:49.398                : en:Chapter 14
01:16:15.445                : en:Chapter 15
01:24:50.668                : en:Chapter 16

Скриншоты


_________________
Показать сообщения:    

Текущее время: Сегодня 07:05

Часовой пояс: GMT



Вы не можете начинать темы
Вы не можете отвечать на сообщения
Вы не можете редактировать свои сообщения
Вы не можете удалять свои сообщения
Вы не можете голосовать в опросах
Вы не можете прикреплять файлы к сообщениям
Вы не можете скачивать файлы