Важное объявление!
У Нас Все раздачи мультитрекерные, при нуле пиров в релизах, можете смело вставать на закачку!
 
Автор Сообщение

димитри37

Стаж:
3 года 9 месяцев
Сообщений:
1237

Репутация: 127

[+] [-]
Вне форума [Профиль] [ЛС]

Статика / Static
Страна: США
Жанр: триллер
Год выпуска: 2012
Продолжительность: 01:23:09
Перевод: Одноголосый закадровый (Хихикающий доктор)
Cубтитры: нет
Режиссер: Тодд Левин / Todd Levin
В ролях: Майло Вентимилья, Сара Шахи, Уильям Мапотер, Сара Пэкстон, Девон Огден, Доминик Богарт, Люк Барнетт, Джон Хэрман, Ахмад Русс, Оз Калван
Описание: Молодая пара находится на грани развода после смерти ребенка. Жизнь супругов еще больше осложняется с появлением загадочной девушки, овеянной ореолом мистики.

Качество видео: HDRip
Формат видео: AVI
Видео: 640x272 (2.35:1), 23.976 fps, XviD MPEG-4 ~1031 kbps avg, 0.25 bit/pixel
Аудио: 44.100 kHz, MPEG Layer 3, 2 ch, ~128.00 kbps avg

MediaInfo

General
Complete name : I:\Запас\Static.2012.Xixidok.avi
Format : AVI
Format/Info : Audio Video Interleave
File size : 695 MiB
Duration : 1h 23mn
Overall bit rate : 1 169 Kbps
Writing application : VirtualDubModRus 1.5.10.2 (build 2542/release)
Writing library : VirtualDubMod build 2542/release
Video
ID : 0
Format : MPEG-4 Visual
Format profile : Advanced Simple@L5
Format settings, BVOP : 2
Format settings, QPel : No
Format settings, GMC : No warppoints
Format settings, Matrix : Default (H.263)
Muxing mode : Packed bitstream
Codec ID : XVID
Codec ID/Hint : XviD
Duration : 1h 23mn
Bit rate : 1 031 Kbps
Width : 640 pixels
Height : 272 pixels
Display aspect ratio : 2.35:1
Frame rate : 23.976 fps
Color space : YUV
Chroma subsampling : 4:2:0
Bit depth : 8 bits
Scan type : Progressive
Compression mode : Lossy
Bits/(Pixel*Frame) : 0.247
Stream size : 614 MiB (88%)
Writing library : XviD 64
Audio
ID : 1
Format : MPEG Audio
Format version : Version 1
Format profile : Layer 3
Codec ID : 55
Codec ID/Hint : MP3
Duration : 1h 23mn
Bit rate mode : Constant
Bit rate : 128 Kbps
Channel(s) : 2 channels
Sampling rate : 44.1 KHz
Compression mode : Lossy
Stream size : 76.1 MiB (11%)
Alignment : Split accross interleaves
Interleave, duration : 42 ms (1.00 video frame)
Interleave, preload duration : 500 ms

Скриншоты



Показать сообщения:    

Текущее время: Сегодня 15:24

Часовой пояс: GMT



Вы не можете начинать темы
Вы не можете отвечать на сообщения
Вы не можете редактировать свои сообщения
Вы не можете удалять свои сообщения
Вы не можете голосовать в опросах
Вы не можете прикреплять файлы к сообщениям
Вы не можете скачивать файлы