Важное объявление!
У Нас Все раздачи мультитрекерные, при нуле пиров в релизах, можете смело вставать на закачку!
 
Автор Сообщение

HUNTER

Стаж:
4 года 4 месяца
Сообщений:
56719

Репутация: 101

[+] [-]
Вне форума [Профиль] [ЛС]

Старый добрый День Благодарения / An Old Fashioned Thanksgiving
Страна: Канада, США
Студия: Automatic Pictures, Muse Entertainment Enterprises
Жанр: драма, экранизация
Год выпуска: 2008
Продолжительность: 01:27:50
Перевод: Субтитры Robi205B
Cубтитры: русские, английские
Оригинальная аудиодорожка: английский
Режиссер: Грэм Кэмпбелл / Graeme Campbell
В ролях: Жаклин Биссет, Хелен Джой, Татьяна Маслани, Кристофер Тернер, Тед Атертон, Паула Бодро, Вивьен Эндикотт Дуглас, Гейдж Манро, Сэм Малкин, Катрин Фитч
Описание: Для овдовевшей Мэри Бассетт и её детей настали трудные времена. Семья не может позволить себе даже традиционный обед в День Благодарения. Старшая дочь Тилли пишет письмо своей богатой бабушке Изабелле, с которой Мэри Бассетт разорвала отношения много лет назад. Изабелла приезжает на ферму, чтобы предложить свою помощь, но родная дочь встречает её очень холодно…
Кинопоиск
Sample
Тип релиза: WEB-DL 1080p
Контейнер: MKV
Видео: MPEG4 AVC Video, H264, 16:9, 1916x1076, 23.976 fps, 5231 kbps
Аудио: English (AC3, 6 ch, 384 kbps, 16 bits, 48.0 KHz) - оригинал
Формат субтитров: softsub (SRT)

MediaInfo

General
Unique ID : 231041390401164673459621504893562876491 (0xADD0F40601929A60AE24273DD5E7724B)
Complete name : E:\An Old Fashioned Thanksgiving 2008 WEB-DL 1080p.mkv
Format : Matroska
Format version : Version 4 / Version 2
File size : 3.51 GiB
Duration : 1h 27mn
Overall bit rate : 5 729 Kbps
Encoded date : UTC 2015-12-27 08:49:35
Writing application : mkvmerge v6.1.0 ('Old Devil') built on Mar 2 2013 14:32:37
Writing library : libebml v1.3.0 + libmatroska v1.4.0
Video
ID : 1
Format : AVC
Format/Info : Advanced Video Codec
Format profile : High@L4.0
Format settings, CABAC : Yes
Format settings, ReFrames : 4 frames
Codec ID : V_MPEG4/ISO/AVC
Duration : 1h 27mn
Bit rate : 5 231 Kbps
Width : 1 916 pixels
Height : 1 076 pixels
Display aspect ratio : 16:9
Frame rate mode : Constant
Frame rate : 23.976 fps
Color space : YUV
Chroma subsampling : 4:2:0
Bit depth : 8 bits
Scan type : Progressive
Bits/(Pixel*Frame) : 0.106
Stream size : 3.21 GiB (91%)
Language : English
Default : Yes
Forced : No
Color primaries : BT.709
Transfer characteristics : BT.709
Matrix coefficients : BT.709
Audio
ID : 2
Format : AC-3
Format/Info : Audio Coding 3
Mode extension : CM (complete main)
Format settings, Endianness : Big
Codec ID : A_AC3
Duration : 1h 27mn
Bit rate mode : Constant
Bit rate : 384 Kbps
Channel count : 6 channels
Channel positions : Front: L C R, Side: L R, LFE
Sampling rate : 48.0 KHz
Bit depth : 16 bits
Compression mode : Lossy
Stream size : 241 MiB (7%)
Language : English
Default : Yes
Forced : No
Text #1
ID : 3
Format : UTF-8
Codec ID : S_TEXT/UTF8
Codec ID/Info : UTF-8 Plain Text
Language : Russian
Default : Yes
Forced : Yes
Text #2
ID : 4
Format : UTF-8
Codec ID : S_TEXT/UTF8
Codec ID/Info : UTF-8 Plain Text
Language : English
Default : No
Forced : No
Menu
00:00:00.000 : en:Chapter 1
00:07:25.000 : en:Chapter 2
00:13:41.000 : en:Chapter 3
00:21:53.000 : en:Chapter 4
00:28:24.000 : en:Chapter 5
00:35:51.000 : en:Chapter 6
00:43:41.000 : en:Chapter 7
00:51:32.000 : en:Chapter 8
00:57:27.000 : en:Chapter 9
01:04:12.000 : en:Chapter 10
01:10:50.000 : en:Chapter 11
01:18:21.000 : en:Chapter 12

Скриншоты


_________________
Показать сообщения:    

Текущее время: Сегодня 18:57

Часовой пояс: GMT



Вы не можете начинать темы
Вы не можете отвечать на сообщения
Вы не можете редактировать свои сообщения
Вы не можете удалять свои сообщения
Вы не можете голосовать в опросах
Вы не можете прикреплять файлы к сообщениям
Вы не можете скачивать файлы