Важное объявление!
У Нас Все раздачи мультитрекерные, при нуле пиров в релизах, можете смело вставать на закачку!
 
Автор Сообщение

HUNTER

Стаж:
4 года 4 месяца
Сообщений:
56798

Репутация: 101

[+] [-]
Вне форума [Профиль] [ЛС]

-
Стартрек: Возмездие / Star Trek Into Darkness
«Beyond the darkness, lies greatness»

Год выпуска: 2013
Страна: США
Студия: Paramount Pictures
Жанр: Фантастика, боевик, приключения
Продолжительность: 02:12:06
Перевод 1: Профессиональный (дублированный) - Blu-Ray CEE
Перевод 2: Профессиональный (дублированный) - Paramount Pictures
Перевод 3: Авторский (одноголосый закадровый) - Немахов
Субтитры: русские, английские, украинские
Оригинальная аудиодорожка: английский
Режиссер: Джей Джей Абрамс / J.J. Abrams
В ролях: Леонард Нимой, Крис Пайн, Закари Куинто, Зои Салдана, Карл Урбан, Саймон Пегг, Джон Чо, Бенедикт Камбербэтч, Антон Ельчин, Брюс Гринвуд
Описание: Вернувшись на Землю, команда корабля «Энтерпрайз» обнаруживает, что деятельность и принципы их организации подорваны изнутри. Флот скован необъяснимым ужасом и бездействует, пока мир все глубже погружается в бездну.
Капитан Кирк берет на себя руководство операцией по поимке злодея, ответственного за этот хаос и способного уничтожить все человечество.
В запутанной игре не на жизнь, а на смерть, любовь и дружба будут принесены в жертву ради единственного, что осталось у Кирка - его команды.

Качество: BDRip 1080p
Формат: MKV
Видео кодек: MPEG4 AVC
Аудио кодек: DTS, AC3
Видео: 1920x1080, 16:9, 23.976 fps, ~18.9 Mbps
Аудио №1: Русский Dolby Digital Audio 5.1, 48 kHz, 16 bit, ~640 kbps – профессиональный (полное дублирование) |Blu-Ray CEE|
Аудио №2: Русский DTS Audio 5.1, 48 kHz, 24 bit, ~1509 kbps – профессиональный (полное дублирование) |Paramount Pictures|
Аудио №3: Русский DTS Audio 5.1, 48 kHz, 24 bit, ~1509 kbps – авторский (одноголосый закадровый) |Юрий Немахов|
Аудио №4: Украинский Dolby Digital Audio 5.1, 48 kHz, 16 bit, ~448 kbps – профессиональный (полное дублирование) |R5|
Аудио №5: Английский DTS Audio 5.1, 48 kHz, 24 bit, ~1509 kbps
Аудио №6: Английский Dolby Digital Audio 5.1, 48 kHz, 16 bit, ~640 kbps - |Descriptive|
Субтитры: Русские (форсированные), Русские, Украинские (форсированные), Украинские, Английские, Английские (SDH), Английские (SDH COLORED), Румынские, Испанские, Греческие, Шведские, Венгерские, Болгарские
-

Знаете ли вы, что...

  • Эпизодическую роль транспортного сотрудника в фильме сыграл Кристофер Дуэн — сын «ветерана» серии — Джеймса Дуэна.
  • Сценаристы для вдохновения изучали научно-фантастические романы Артура Ч. Кларка и Ларри Найвена.
  • По словам Джей Джей Абрамса понятие путешествия во времени, которое было в предыдущем фильме, использовалось преднамеренно, для того чтобы иметь больший простор для работы над новыми фильмами: «То, что теперь мы не зависим от временного периода, позволяет нам использовать любые моменты прошлого, либо же придумывать совершенно новые для создания сюжета».
  • Сценаристы Роберто Орси и Алекс Куртцман объяснили, что дилеммой для сиквела был выбор — столкнуть экипаж с новым злодеем или же сделать «исследовательский научно-фантастический сюжет», как в сериале «Звездный путь» (1966-1969).
  • Хейли Этвелл и Тереза Палмер пробовались на роль Кэрол Маркус.
  • Бенисио Дель Торо предлагали роль Джона Харрисона, но в итоге отказался из-за денежных вопросов. Затем на эту роль рассматривались Демиан Бишир, Эдгар Рамирес и Хорди Молья, но в итоге она досталась Бенедикту Камбербэтчу.
  • Студия Paramount Pictures попросила режиссера Джей Джей Абрамса снять фильм в 3D. Однако Абрамс хотел снимать в 2D на пленку, используя камеры IMAX. В итоге они пришли к компромиссу, и результатом стало то, что этот фильм стал первым в истории кино снятым в IMAX-формате, а затем преобразованным в 3D на стадии пост-продакшна.
  • Это второе появление Питера Уэллера в фильмах серии «Звездный путь». Он ранее снимался в качестве приглашенной звезды в сериале «Звездный путь: Энтерпрайз» (2001-2005).
  • Бенедикта Камбербэтча Джей Джей Абрамсу рекомендовал его сопродюсер по фильму «Супер 8» (2011) — Стивен Спилберг, который работал вместе с Камбербэтчем в фильме «Боевой конь» (2011).
  • Питер Уэллер ранее снимался в фильме «Приключения Бакару Банзая в восьмом измерении» (1984) вместе с бывшим злодеем из «Звездного пути» — Кристофером Ллойдом, а также в фильме «Робокоп» (1987) вместе с другими «ветеранами» серии — Ронни Коксом, Кертвудом Смитом и Мигелем Феррером.
  • Бенедикт Камбербэтч стал широко известен благодаря своей роли в сериале «Шерлок» (2010). Леонард Нимой играл Шерлока Холмса в сценических постановках в 1970-х, и даже упоминает этот факт в фильме «Звездный путь 6: Неоткрытая страна» (1991), ссылаясь на логику Холмса, говоря: «когда вы исключаете невозможное, то, что остается, обычно маловероятно, но должно быть правдой». Так же Кристофер Пламмер исполнял роль Холмса и произносил его фирменную фразу: «Ставки сделаны» (The game`s afoot). Еще Нимой записывал песню в 1970-х — «The Ballad of Bilbo Baggins» (Баллада о Бильбо Бэггинсе), а Камбербэтч озвучивал дракона Смога в фильме «Хоббит: Пустошь Смауга» (2013), в котором его коллега по сериалу «Шерлок» (2010) — Мартин Фриман — сыграл Бильбо Бэггинса.
  • Бенедикт Камбербэтч записал видео ролик для кинопроб на кухне своего лучшего друга при помощи iPhone.
  • Из всех предлагаемых названий для фильма, включая и шуточные, сценаристу Дэймону Линделофу больше всего понравилось: «Звездный путь: Трансформеры 4». Он сказал: «Технически мы без проблем можем исполнить и это».
  • Майкл Дорн, который ранее играл клингонского лейтенанта Ворфа, на момент начала съемок приглашался на роль офицера. Но в конечном итоге создатели фильма решили не смешивать старый и новый актерский состав из серии фильмов «Звездный путь».
  • Это первый раз, когда фильм серии «Звездный путь» снимался за пределами США. Были съемки для сцен со спецэффектами в Исландии.
  • В фильме Джон Харрисон дает Джеймсу Т. Кирку пространственные координаты 23174611. Это координаты орбиты одной из лун Юпитера.
  • Брюс Гринвуд и Питер Уэллер озвучивали героев DC Comics — Брюса Уэйна / Бэтмена: Гринвуд в мультфильме «Бэтмен: Под колпаком» (2010) и сериале «Юная Лига Справедливости» (2010), а Уэллер в «Темный рыцарь: Возрождение легенды. Часть 1» (2012).
  • Коллекция моделей на столе адмирала Маркуса напоминает галерею старых кораблей «Энтерпрайз» из «Звездный путь: Фильм» (1979). В обеих коллекциях есть шаттл НАСА и «XCV 330 USS Энтерпрайз» (корабль с кольцами вокруг его корпуса). Также среди моделей присутствует «NX-01 Энтерпрайз» из сериала «Звездный путь: Энтерпрайз» (2001-2005).
  • Когда клерк из Лос-Анджелеса привёз Бенедикту Камбербэтчу сценарий, чемодан с рукописью был пристёгнут к его руке наручником.
  • Подбитый корабль Маркуса на своем пути снес знаменитую тюрьму Алькатрас. Что интересно, Джей Джей Абрамс был исполнительным продюсером сериала «Алькатрас» (2011).
  • Ошибки в фильме

  • В фильме на 57 минуте, когда Спок целует Ухуру, меняется расположение лица. То её голова к правому плечу, то в следующем кадре голова уже к левому плечу.
  • Когда Кирк лежит и умирает у двери с окном, Спок прикладывает свою руку к окну, и делает жест — «Вулканский салют», в следующем кадре его рука уже не показывает этот жест.
  • Ремень безопасности Сулу то появляется, то исчезает во время сцены финальной битвы.
  • Когда старый Спок появляется на экране Энтерпрайза, изображение зеркально отображено. Это можно заметить потому, что у актера Нимоя вытянута мочка правого уха, а не левого.
  • Информация

  • Источник: Star Trek Into Darkness 2013 IMAX Edition Blu-ray 1080p AVC TrueHD 7.1-ESiR (tnx DBaT)
  • Рип от NTb
  • Сохранены оригинальные чаптеры как на Blu-ray.
  • За выкуп перевода Юрия Немахова спасибо: fen, ultrajeka, Savely, anvic, dr_akula, Guyver, Марлон, Nadoelo, Эдуард, пуля, dark1982, DB73, AlBeOne, Tio, carnivale, kRIPtograf, YoGuRt-82, kiruxa-k, Slimka, MyxAmoP.
  • Сэмпл

    Скриншоты


    MediaInfo

    General
    Unique ID : 186418568969986321569062139902670562475 (0x8C3EE911152C1F73960487CEFEF264AB)
    Complete name : Star Trek Into Darkness [Стартрек. Возмездие] [IMAX Edition] 1080p.mkv
    Format : Matroska
    Format version : Version 2
    File size : 23.9 GiB
    Duration : 2h 13mn
    Overall bit rate : 25.7 Mbps
    Movie name : Star Trek Into Darkness (2013) - Release for HDCLUB
    Encoded date : UTC 2014-09-26 20:42:39
    Writing application : mkvmerge v5.7.0 ('The Whirlwind') built on Jul 8 2012 20:08:51
    Writing library : libebml v1.2.3 + libmatroska v1.3.0
    Video
    ID : 1
    Format : AVC
    Format/Info : Advanced Video Codec
    Format profile : High@L4.1
    Format settings, CABAC : Yes
    Format settings, ReFrames : 4 frames
    Codec ID : V_MPEG4/ISO/AVC
    Duration : 2h 13mn
    Bit rate : 18.9 Mbps
    Width : 1 920 pixels
    Height : 1 080 pixels
    Display aspect ratio : 16:9
    Frame rate mode : Constant
    Frame rate : 23.976 fps
    Color space : YUV
    Chroma subsampling : 4:2:0
    Bit depth : 8 bits
    Scan type : Progressive
    Bits/(Pixel*Frame) : 0.380
    Stream size : 17.6 GiB (74%)
    Writing library : x264 core 142 r2453 ea0ca51
    Encoding settings : cabac=1 / ref=4 / deblock=1:-3:-3 / analyse=0x3:0x133 / me=umh / subme=10 / psy=1 / psy_rd=1.03:0.00 / mixed_ref=1 / me_range=48 / chroma_me=1 / trellis=2 / 8x8dct=1 / cqm=0 / deadzone=21,11 / fast_pskip=1 / chroma_qp_offset=-2 / threads=4 / lookahead_threads=1 / sliced_threads=0 / nr=0 / decimate=1 / interlaced=0 / bluray_compat=0 / constrained_intra=0 / bframes=8 / b_pyramid=2 / b_adapt=2 / b_bias=0 / direct=3 / weightb=1 / open_gop=0 / weightp=2 / keyint=250 / keyint_min=23 / scenecut=40 / intra_refresh=0 / rc_lookahead=150 / rc=crf / mbtree=0 / crf=18.4 / qcomp=0.75 / qpmin=0 / qpmax=69 / qpstep=4 / vbv_maxrate=50000 / vbv_bufsize=62500 / crf_max=0.0 / nal_hrd=none / filler=0 / ip_ratio=1.30 / pb_ratio=1.20 / aq=1:0.70 / zones=4593,4861,crf=17.2/4901,4951,crf=17.2/5073,5231,crf=17.2/5302,5914,crf=17.2/6097,6159,crf=17.2/6342,7694,crf=17.2/8060,8982,crf=17.2/9248,9390,crf=17.2/9858,9960,crf=17.2/10094,10150,crf=17.2/10198,10268,crf=17.2/10820,12452,crf=17.2/12563,13022,crf=17.2/13807,14873,crf=17.2/31732,31873,crf=17.6/37802,37940,crf=17.2/38424,38454,crf=17.6/38856,38886,crf=17.6/39269,39323,crf=17.6/39570,39687,crf=17.6/40014,40050,crf=17.6/40068,40148,crf=17.6/40188,40282,crf=17.6/42681,43251,crf=17.6/56683,56782,crf=17.2/56872,56971,crf=17.2/57621,57760,crf=17.2/59942,60027,crf=17.2/61286,61410,crf=17.2/64597,64958,crf=17.2/65770,65891,crf=17.2/66300,66417,crf=17.2/69276,69379,crf=17.6/69536,69603,crf=17.6/69736,70000,crf=17.6/70075,70122,crf=17.6/70274,70330,crf=17.6/70500,70545,crf=17.6/70566,70730,crf=17.6/70765,70845,crf=17.6/70998,71087,crf=17.6/71218,71586,crf=17.6/72572,73551,crf=17.6/75358,75870,crf=17.6/75893,76036,crf=17.6/76061,81475,crf=17.6/86409,86680,crf=17.2/91896,92204,crf=17.2/96068,96260,crf=17.2/96315,96355,crf=17.2/96415,96650,crf=17.2/96710,96880,crf=17.2/97120,97225,crf=17.2/97520,97704,crf=17.2/104911,105381,crf=17.2/109899,110050,crf=17.6/110916,111093,crf=17.2/111136,111218,crf=17.2/111356,111546,crf=17.2/111565,111626,crf=17.2/111829,111902,crf=17.2/112309,112442,crf=17.2/114981,115258,crf=17.6/115599,115661,crf=17.6/121986,122279,crf=17.2/122835,122942,crf=17.2/125812,126064,crf=17.2/126149,126272,crf=17.6/126306,126397,crf=17.6/126800,126940,crf=17.2/127102,127160,crf=17.2/127196,127395,crf=17.2/127695,127858,crf=17.2/127992,128041,crf=17.2/128176,128504,crf=17.2/128602,128681,crf=17.2/128812,129453,crf=17.2/129489,129507,crf=17.2/129605,129660,crf=17.2/129710,129729,crf=17.2/129744,129789,crf=17.2/129839,129866,crf=17.2/129939,129952,crf=17.2/130006,130034,crf=17.2/142486,142630,crf=17.2/143063,143144,crf=17.2/143239,143397,crf=17.2/144415,144584,crf=17.6/144670,144765,crf=17.6/145755,145784,crf=17.6/146587,146690,crf=17.6/146774,146808,crf=17.2/148434,148546,crf=17.2/149109,149195,crf=17.2/151726,151923,crf=17.2/152937,153132,crf=17.6/153973,154093,crf=17.2
    Language : English
    Default : Yes
    Forced : No
    Audio #1
    ID : 2
    Format : AC-3
    Format/Info : Audio Coding 3
    Mode extension : CM (complete main)
    Format settings, Endianness : Big
    Codec ID : A_AC3
    Duration : 2h 13mn
    Bit rate mode : Constant
    Bit rate : 640 Kbps
    Channel(s) : 6 channels
    Channel positions : Front: L C R, Side: L R, LFE
    Sampling rate : 48.0 KHz
    Bit depth : 16 bits
    Compression mode : Lossy
    Stream size : 612 MiB (2%)
    Title : |Дубляж, Blu-ray CEE|
    Language : Russian
    Default : Yes
    Forced : No
    Audio #2
    ID : 3
    Format : DTS
    Format/Info : Digital Theater Systems
    Mode : 16
    Format settings, Endianness : Big
    Codec ID : A_DTS
    Duration : 2h 13mn
    Bit rate mode : Constant
    Bit rate : 1 509 Kbps
    Channel(s) : 6 channels
    Channel positions : Front: L C R, Side: L R, LFE
    Sampling rate : 48.0 KHz
    Bit depth : 24 bits
    Compression mode : Lossy
    Stream size : 1.41 GiB (6%)
    Title : |Дубляж, Paramount Pictures|
    Language : Russian
    Default : No
    Forced : No
    Audio #3
    ID : 4
    Format : DTS
    Format/Info : Digital Theater Systems
    Mode : 16
    Format settings, Endianness : Big
    Codec ID : A_DTS
    Duration : 2h 13mn
    Bit rate mode : Constant
    Bit rate : 1 509 Kbps
    Channel(s) : 6 channels
    Channel positions : Front: L C R, Side: L R, LFE
    Sampling rate : 48.0 KHz
    Bit depth : 24 bits
    Compression mode : Lossy
    Stream size : 1.41 GiB (6%)
    Title : |Одноголосый закадровый, Ю.Немахов|
    Language : Russian
    Default : No
    Forced : No
    Audio #4
    ID : 5
    Format : AC-3
    Format/Info : Audio Coding 3
    Mode extension : CM (complete main)
    Format settings, Endianness : Big
    Codec ID : A_AC3
    Duration : 2h 13mn
    Bit rate mode : Constant
    Bit rate : 448 Kbps
    Channel(s) : 6 channels
    Channel positions : Front: L C R, Side: L R, LFE
    Sampling rate : 48.0 KHz
    Bit depth : 16 bits
    Compression mode : Lossy
    Stream size : 428 MiB (2%)
    Title : |Дубляж, R5|
    Language : Ukrainian
    Default : No
    Forced : No
    Audio #5
    ID : 6
    Format : DTS
    Format/Info : Digital Theater Systems
    Mode : 16
    Format settings, Endianness : Big
    Codec ID : A_DTS
    Duration : 2h 13mn
    Bit rate mode : Constant
    Bit rate : 1 510 Kbps
    Channel(s) : 6 channels
    Channel positions : Front: L C R, Side: L R, LFE
    Sampling rate : 48.0 KHz
    Bit depth : 24 bits
    Compression mode : Lossy
    Stream size : 1.41 GiB (6%)
    Language : English
    Default : No
    Forced : No
    Audio #6
    ID : 7
    Format : AC-3
    Format/Info : Audio Coding 3
    Mode extension : CM (complete main)
    Format settings, Endianness : Big
    Codec ID : A_AC3
    Duration : 2h 13mn
    Bit rate mode : Constant
    Bit rate : 640 Kbps
    Channel(s) : 6 channels
    Channel positions : Front: L C R, Side: L R, LFE
    Sampling rate : 48.0 KHz
    Bit depth : 16 bits
    Compression mode : Lossy
    Stream size : 612 MiB (2%)
    Title : |Descriptive|
    Language : English
    Default : No
    Forced : No
    Text #1
    ID : 8
    Format : UTF-8
    Codec ID : S_TEXT/UTF8
    Codec ID/Info : UTF-8 Plain Text
    Title : Forced
    Language : Russian
    Default : Yes
    Forced : No
    Text #2
    ID : 9
    Format : UTF-8
    Codec ID : S_TEXT/UTF8
    Codec ID/Info : UTF-8 Plain Text
    Title : Full
    Language : Russian
    Default : No
    Forced : No
    Text #3
    ID : 10
    Format : UTF-8
    Codec ID : S_TEXT/UTF8
    Codec ID/Info : UTF-8 Plain Text
    Title : Forced
    Language : Ukrainian
    Default : No
    Forced : No
    Text #4
    ID : 11
    Format : UTF-8
    Codec ID : S_TEXT/UTF8
    Codec ID/Info : UTF-8 Plain Text
    Title : Full
    Language : Ukrainian
    Default : No
    Forced : No
    Text #5
    ID : 12
    Format : UTF-8
    Codec ID : S_TEXT/UTF8
    Codec ID/Info : UTF-8 Plain Text
    Language : English
    Default : No
    Forced : No
    Text #6
    ID : 13
    Format : UTF-8
    Codec ID : S_TEXT/UTF8
    Codec ID/Info : UTF-8 Plain Text
    Title : SDH
    Language : English
    Default : No
    Forced : No
    Text #7
    ID : 14
    Format : UTF-8
    Codec ID : S_TEXT/UTF8
    Codec ID/Info : UTF-8 Plain Text
    Title : SDH-COLORED
    Language : English
    Default : No
    Forced : No
    Text #8
    ID : 15
    Format : UTF-8
    Codec ID : S_TEXT/UTF8
    Codec ID/Info : UTF-8 Plain Text
    Language : Romanian
    Default : No
    Forced : No
    Text #9
    ID : 16
    Format : UTF-8
    Codec ID : S_TEXT/UTF8
    Codec ID/Info : UTF-8 Plain Text
    Language : Spanish
    Default : No
    Forced : No
    Text #10
    ID : 17
    Format : UTF-8
    Codec ID : S_TEXT/UTF8
    Codec ID/Info : UTF-8 Plain Text
    Language : Greek
    Default : No
    Forced : No
    Text #11
    ID : 18
    Format : UTF-8
    Codec ID : S_TEXT/UTF8
    Codec ID/Info : UTF-8 Plain Text
    Language : Swedish
    Default : No
    Forced : No
    Text #12
    ID : 19
    Format : UTF-8
    Codec ID : S_TEXT/UTF8
    Codec ID/Info : UTF-8 Plain Text
    Language : Hungarian
    Default : No
    Forced : No
    Text #13
    ID : 20
    Format : UTF-8
    Codec ID : S_TEXT/UTF8
    Codec ID/Info : UTF-8 Plain Text
    Language : Bulgarian
    Default : No
    Forced : No
    Menu
    00:00:00.000 : en:00:00:00.000
    00:10:20.370 : en:00:10:20.370
    00:19:21.494 : en:00:19:21.494
    00:30:03.969 : en:00:30:03.969
    00:40:09.115 : en:00:40:09.115
    00:46:05.262 : en:00:46:05.262
    00:56:38.228 : en:00:56:38.228
    01:06:35.783 : en:01:06:35.783
    01:12:55.663 : en:01:12:55.663
    01:22:45.752 : en:01:22:45.752
    01:30:54.741 : en:01:30:54.741
    01:38:36.369 : en:01:38:36.369
    01:47:09.548 : en:01:47:09.548
    01:54:17.142 : en:01:54:17.142
    01:59:20.653 : en:01:59:20.653
    02:03:18.308 : en:02:03:18.308

    -
    Релиз

    _________________
    Показать сообщения:    

    Текущее время: Сегодня 01:29

    Часовой пояс: GMT



    Вы не можете начинать темы
    Вы не можете отвечать на сообщения
    Вы не можете редактировать свои сообщения
    Вы не можете удалять свои сообщения
    Вы не можете голосовать в опросах
    Вы не можете прикреплять файлы к сообщениям
    Вы не можете скачивать файлы