Важное объявление!
У Нас Все раздачи мультитрекерные, при нуле пиров в релизах, можете смело вставать на закачку!
 
Автор Сообщение

HUNTER

Стаж:
4 года 4 месяца
Сообщений:
56798

Репутация: 101

[+] [-]
Вне форума [Профиль] [ЛС]

Старая подруга
Страна: Украина
Студия: "Кинофабрика Копейкина"
Жанр: Молодёжная комедия
Год выпуска: 2007
Продолжительность: 01:43:03
Перевод: Не требуется
Cубтитры: украинские
Оригинальная аудиодорожка: русский
Издание (с) ООО "Фильм Стрим", 2007(с) ООО "Аврора Диджитал", 2007
Режиссер: Александр Копейкин
В ролях: Людмила Загорская, Анастасия Касилова, Арнис Лицитис, Борис Щербаков, Дмитрий Суржиков, Алексей Маклаков, Мария Аронова, и др.
Описание: В современном городе живут две "старые подруги" - Варвара и Вика. И дружат, как водится, со школьной скамьи, где их обожаемые отцы преподавали дочерям математику и литературу.
Подруги по-своему счастливы и в меру удачливы. Варя - известный художник-гримёр, активно работает на ТV, в кино, рекламе. Мужчины в её жизни - созвездие звёзд отечественного кинематографа. Варя влюбчива. Обожает ночную светскую жизнь, ненавидит рано вставать.
Виктория - настоящий бизнесмен, требовательна к себе и окружающим, ненавидит расхлябанность и безответственность. Туристическое агентство, доставшееся ей после развода, приносит стабильный доход. Страдает от упрямого и навязчивого ухажёра.
Школьные подруги не теряют связь и время от времени, на бегу, встречаются за чашкой кофе. Дружат, и все ещё учительствуют, папа-математик и папа-филолог.
У каждого свои посиделки, свои новости, свои тревоги. Девчонки в поисках надёжных спутников жизни, родители в ожидании внуков. Вспомнив лучшего из выпускников - Олега Петровского, родители заключают сделку: найти бывшего ученика и привлечь к семейной жизни! А вот кому из дочек повезёт - решит случай.
В тоже время Варя и Вика заключают шуточное пари на право вновь завоевать свою первую школьную любовь - Олежку из параллельного класса.
Не догадывается об этом только Олег, на которого будет охотиться пара мудрых отцов и пара предприимчивых подружек.
Меню: статичное / озвученное
Сэмпл: http://multi-up.com/1093777/
Тип релиза: DVD5
Контейнер: DVD-Video
Видео: PAL 16:9 VBR Auto Pan&Scan 3 801 Kbps 25.000 fps
Аудио: Russian (Dolby AC3, 2 ch) 192 Kbps

DVDInfo

Title:
Size: 2.91 Gb ( 3 052 560 KBytes ) - DVD-5
Enabled regions: 1, 2, 3, 4, 5, 6, 7, 8
VTS_01 :
Play Length: 01:43:03
Video: PAL 16:9 (720x576) VBR, Auto Pan&Scan
Audio:
Russian (Dolby AC3, 2 ch)
Subtitles:
Ukrainian
Ukrainian
VTS_02 :
Play Length: 00:00:26
Video: PAL 4:3 (720x576) VBR
Audio:
Ukrainian (Dolby AC3, 2 ch)
Menu Video:
PAL 16:9 (720x576) VBR
Auto Pan&Scan
Menu Audio:
Not specified (Dolby AC3, 2 ch)
Menu Subtitles:
Not specified
Menu Russian Language Unit :
Root Menu
Subpicture Menu
Chapter (PTT) Menu

MediaInfo

General
Complete name : D:\Video\Старая подруга\VIDEO_TS\VTS_01_1.VOB
Format : MPEG-PS
File size : 1 024 MiB
Duration : 35mn 7s
Overall bit rate : 4 074 Kbps
Writing library : Apple MPEG-2 Encoder v483-20050527 [3700000 76510 R7500000 w3 e2s E0 s0x10002 I V0x0]
Video
ID : 224 (0xE0)
Format : MPEG Video
Format version : Version 2
Format profile : Main@Main
Format settings, BVOP : Yes
Format settings, Matrix : Default
Format settings, GOP : M=3, N=12
Duration : 35mn 7s
Bit rate mode : Variable
Bit rate : 3 801 Kbps
Nominal bit rate : 7 500 Kbps
Width : 720 pixels
Height : 576 pixels
Display aspect ratio : 16:9
Frame rate : 25.000 fps
Standard : PAL
Color space : YUV
Chroma subsampling : 4:2:0
Bit depth : 8 bits
Scan type : Progressive
Scan order : Bottom Field First
Bits/(Pixel*Frame) : 0.367
Stream size : 955 MiB (93%)
Writing library : Apple MPEG-2 Encoder v483-20050527 [3700000 76510 R7500000 w3 e2s E0 s0x10002 I V0x0]
Audio
ID : 128 (0x80)
Format : AC-3
Format/Info : Audio Coding 3
Mode extension : CM (complete main)
Duration : 35mn 7s
Bit rate mode : Constant
Bit rate : 192 Kbps
Channel(s) : 2 channels
Channel positions : Front: L R
Sampling rate : 48.0 KHz
Stream size : 48.2 MiB (5%)
Text
ID : 32 (0x20)
Format : RLE
Format/Info : Run-length encoding

Скриншоты меню

Скриншоты


_________________
Показать сообщения:    

Текущее время: Сегодня 07:27

Часовой пояс: GMT



Вы не можете начинать темы
Вы не можете отвечать на сообщения
Вы не можете редактировать свои сообщения
Вы не можете удалять свои сообщения
Вы не можете голосовать в опросах
Вы не можете прикреплять файлы к сообщениям
Вы не можете скачивать файлы