Важное объявление!
У Нас Все раздачи мультитрекерные, при нуле пиров в релизах, можете смело вставать на закачку!
 
Автор Сообщение

HUNTER

Стаж:
4 года 4 месяца
Сообщений:
56790

Репутация: 101

[+] [-]
Вне форума [Профиль] [ЛС]

Стальные звери
Год выпуска: 2013
Страна: Россия
Жанр: Документальный
Продолжительность: 01:14:33
Перевод: Не требуется
Русские субтитры: нет
Режиссер: Виктор Мураховский
Описание: Увлекательный рассказ телекомпании "Комсомольская правда" о бронетанковой технике Второй мировой войны Германии и СССР.
Сэмпл: http://sendfile.su/811281
качество: DVB
формат: MP4
видеокодек: AVC
аудиокодек: AAC
Видео: AVC, 640х480, 4:3, 1695 Кбит/сек, 25 fps
Аудио: AAC, 125 Кбит/сек, 48 КГц, 2 канала

Список выпусков/серий

Часть 1
Часть 2
Часть 3
Часть 4
Часть 5
Часть 6

MediaInfo

Общее
Полное имя : C:\Steel Beasts\Steel Beasts_part_1.mp4
Формат : MPEG-4
Профиль формата : Base Media / Version 2
Идентификатор кодека : mp42
Размер файла : 414 Мбайт
Продолжительность : 31 м.
Режим общего битрейта : Переменный
Общий поток : 1824 Кбит/сек
Дата кодирования : UTC 2013-02-22 16:29:34
Дата пометки : UTC 2013-02-22 16:29:34
©TIM : 00:18:27:14
©TSC : 25
©TSZ : 1
Видео
Идентификатор : 1
Формат : AVC
Формат/Информация : Advanced Video Codec
Профиль формата : Main@L3.1
Параметр CABAC формата : Да
Параметр ReFrames формата : 3 кадра
Идентификатор кодека : avc1
Идентификатор кодека/Информация : Advanced Video Coding
Продолжительность : 31 м.
Битрейт : 1695 Кбит/сек
Ширина : 640 пикселей
Высота : 480 пикселей
Соотношение сторон : 4:3
Режим частоты кадров : Постоянный
Частота кадров : 25,000 кадров/сек
Стандарт вещания : PAL
Цветовое пространство : YUV
Субдискретизация насыщенности : 4:2:0
Битовая глубина : 8 бит
Тип развёртки : Прогрессивная
Бит/(Пиксели*Кадры) : 0.221
Размер потока : 385 Мбайт (93%)
Язык : English
Дата кодирования : UTC 2013-02-22 16:29:34
Дата пометки : UTC 2013-02-22 16:29:34
Аудио
Идентификатор : 2
Формат : AAC
Формат/Информация : Advanced Audio Codec
Профиль формата : LC
Идентификатор кодека : 40
Продолжительность : 31 м.
Продолжительность оригинала : 31 м.
Вид битрейта : Переменный
Битрейт : 125 Кбит/сек
Максимальный битрейт : 207 Кбит/сек
Каналы : 2 канала
Расположение каналов : Front: L R
Частота : 48,0 КГц
Метод сжатия : С потерями
Размер потока : 28,5 Мбайт (7%)
Размер потока оригинала : 28,5 Мбайт (7%)
Язык : English
Дата кодирования : UTC 2013-02-22 16:29:34
Дата пометки : UTC 2013-02-22 16:29:34

Скриншоты


_________________
Показать сообщения:    

Текущее время: Сегодня 13:03

Часовой пояс: GMT



Вы не можете начинать темы
Вы не можете отвечать на сообщения
Вы не можете редактировать свои сообщения
Вы не можете удалять свои сообщения
Вы не можете голосовать в опросах
Вы не можете прикреплять файлы к сообщениям
Вы не можете скачивать файлы