Важное объявление!
У Нас Все раздачи мультитрекерные, при нуле пиров в релизах, можете смело вставать на закачку!
 
Автор Сообщение

HUNTER

Стаж:
4 года 4 месяца
Сообщений:
56842

Репутация: 101

[+] [-]
Вне форума [Профиль] [ЛС]

Стальной гигант / The Iron Giant [Signature Edition]-
Год выпуска: 1999
Выпущено: США
Жанр: мультфильм, фантастика, боевик
Продолжительность: 01:29:58
Перевод: Профессиональный (полное дублирование) R5
+ Авторский одноголосый Ю.Живов
Оригинальная звуковая дорожка: English
Субтитры: Russian (full, forced), Ukrainian (forced), English (full, SDH, SDH colored)-Режиссер: Брэд Бёрд / Brad Bird
В ролях: Эли Мариентал, Вин Дизель, Дженнифер Энистон, Гарри Конник мл., Джеймс Гэммон, Клорис Личмен, Кристофер МакДональд, Джон Махони, М. Эммет Уолш, Джек Эйнджел
О фильме: Жители тихой американской провинции становятся свидетелями ослепительной вспышки и падения огромного летающего объекта. Спустя несколько дней мальчуган по имени Хогарт Хьюз находит в окрестностях гигантского робота, прилетевшего на Землю из далекой космической галактики.
Несмотря на свой грозный вид, инопланетный гость оказывается добрейшим созданием. Между ним и отважным мальчишкой завязывается настоящая дружба. Но узнавшие о существовании робота правительство и военные решили уничтожить пришельца. Хогарт - единственный, кто может спасти стального гиганта...
Релиз:
Тип релиза: BDRip 1080p
Формат: MKV
Видео: 1920x800 at 23.976 fps, x264@L4.1, crf, ~13000 kbps avg
Аудио #01: Russian: 48 kHz, AC3, 3/2 (L,C,R,l,r) ch, ~ 384 kbps avg |Дубляж, R5|
Аудио #02: Russian: 48 kHz/24-bit, DTS 5.1, ~ 1509 kbps avg |Одноголосый закадровый, Ю. Живов|
Аудио #03: Ukrainian: 48 kHz, AC3, 2/0 (L,R) ch, ~192.00 kbps avg |Двухголосый закадровый, 1+1|
Аудио #04: English: 48 kHz/24-bit, DTS 5.1, ~1509 kbps avg
Семпл-
-

mInfo

Формат : Matroska
Версия формата : Version 2
Размер файла : 10,6 Гбайт
Продолжительность : 1 ч. 29 м.
Общий поток : 16,9 Мбит/сек
Название фильма : Стальной гигант / The Iron Giant (1999) - Release for HDCLUB by Elheym
Дата кодирования : UTC 2016-09-19 07:05:48
Программа кодирования : mkvmerge v3.4.0 ('Rapunzel') сборка от May 15 2010 09:38:20
Библиотека кодирования : libebml v0.8.0 + libmatroska v0.9.0
Attachements : cover.jpg
Видео
Идентификатор : 1
Формат : AVC
Формат/Информация : Advanced Video Codec
Профиль формата : High@L4.1
Параметр CABAC формата : Да
Параметр ReFrames формата : 4 кадра
Идентификатор кодека : V_MPEG4/ISO/AVC
Продолжительность : 1 ч. 29 м.
Битрейт : 13,0 Мбит/сек
Ширина : 1920 пикселей
Высота : 800 пикселей
Соотношение сторон : 2,40:1
Режим частоты кадров : Постоянный
Частота кадров : 23,976 кадра/сек
Цветовое пространство : YUV
Субдискретизация насыщенности : 4:2:0
Битовая глубина : 8 бит
Тип развёртки : Прогрессивная
Бит/(Пиксели*Кадры) : 0.352
Размер потока : 8,14 Гбайт (77%)
Заголовок : Стальной гигант / The Iron Giant (1999) - Release for HDCLUB
Библиотека кодирования : x264 core 148 r2705+54 9f484c1 t_mod_Custom [8-bit@all X86_64]
Настройки программы : cabac=1 / ref=4 / deblock=1:-3:-2 / analyse=0x3:0x113 / me=umh / subme=11 / psy=1 / fade_compensate=0.00 / psy_rd=1.00:0.00 / mixed_ref=1 / me_range=32 / chroma_me=1 / trellis=2 / 8x8dct=1 / cqm=0 / deadzone=21,11 / fast_pskip=0 / chroma_qp_offset=-2 / threads=6 / lookahead_threads=2 / sliced_threads=0 / nr=0 / decimate=1 / interlaced=0 / bluray_compat=0 / constrained_intra=0 / fgo=0 / bframes=13 / b_pyramid=2 / b_adapt=2 / b_bias=0 / direct=3 / weightb=1 / open_gop=0 / weightp=2 / keyint=230 / keyint_min=23 / scenecut=40 / intra_refresh=0 / rc_lookahead=80 / rc=crf / mbtree=0 / crf=18.2000 / qcomp=0.75 / qpmin=0:0:0 / qpmax=69:69:69 / qpstep=4 / vbv_maxrate=50000 / vbv_bufsize=62500 / crf_max=0.0 / nal_hrd=none / filler=0 / ip_ratio=1.40 / pb_ratio=1.30 / aq=3:0.90 / aq-sensitivity=10.00 / aq-factor=1.00:1.00:1.00 / aq2=0 / aq3=0
Язык : English
Default : Нет
Forced : Нет
Аудио #1
Идентификатор : 2
Формат : AC-3
Формат/Информация : Audio Coding 3
Расширение режима : CM (complete main)
Параметр Endianness формата : Big
Идентификатор кодека : A_AC3
Продолжительность : 1 ч. 29 м.
Вид битрейта : Постоянный
Битрейт : 384 Кбит/сек
Каналы : 6 каналов
Расположение каналов : Front: L C R, Side: L R, LFE
Частота : 48,0 КГц
Битовая глубина : 16 бит
Метод сжатия : С потерями
Размер потока : 247 Мбайт (2%)
Заголовок : AC3 5.1 @ 384 kbps - Dub
Язык : Russian
Default : Нет
Forced : Нет
Аудио #2
Идентификатор : 3
Формат : DTS
Формат/Информация : Digital Theater Systems
Режим : 16
Параметр Endianness формата : Big
Идентификатор кодека : A_DTS
Продолжительность : 1 ч. 29 м.
Вид битрейта : Постоянный
Битрейт : 1509 Кбит/сек
Каналы : 6 каналов
Расположение каналов : Front: L C R, Side: L R, LFE
Частота : 48,0 КГц
Битовая глубина : 24 бит
Метод сжатия : С потерями
Размер потока : 971 Мбайт (9%)
Заголовок : DTS 5.1 @ 1509 kbps - VO, Zhivov
Язык : Russian
Default : Нет
Forced : Нет
Аудио #3
Идентификатор : 4
Формат : AC-3
Формат/Информация : Audio Coding 3
Расширение режима : CM (complete main)
Параметр Endianness формата : Big
Идентификатор кодека : A_AC3
Продолжительность : 1 ч. 29 м.
Вид битрейта : Постоянный
Битрейт : 192 Кбит/сек
Каналы : 2 канала
Расположение каналов : Front: L R
Частота : 48,0 КГц
Битовая глубина : 16 бит
Метод сжатия : С потерями
Размер потока : 124 Мбайт (1%)
Заголовок : AC3 2.0 @ 192 kbps - DVO, 1+1
Язык : Ukrainian
Default : Нет
Forced : Нет
Аудио #4
Идентификатор : 5
Формат : DTS
Формат/Информация : Digital Theater Systems
Режим : 16
Параметр Endianness формата : Big
Идентификатор кодека : A_DTS
Продолжительность : 1 ч. 29 м.
Вид битрейта : Постоянный
Битрейт : 1509 Кбит/сек
Каналы : 6 каналов
Расположение каналов : Front: L C R, Side: L R, LFE
Частота : 48,0 КГц
Битовая глубина : 24 бит
Метод сжатия : С потерями
Размер потока : 971 Мбайт (9%)
Заголовок : DTS 5.1 @ 1509 kbps - Original
Язык : English
Default : Нет
Forced : Нет
Текст #1
Идентификатор : 6
Формат : UTF-8
Идентификатор кодека : S_TEXT/UTF8
Идентификатор кодека/Информация : UTF-8 Plain Text
Заголовок : Full
Язык : Russian
Default : Нет
Forced : Нет
Текст #2
Идентификатор : 7
Формат : UTF-8
Идентификатор кодека : S_TEXT/UTF8
Идентификатор кодека/Информация : UTF-8 Plain Text
Заголовок : Forced
Язык : Russian
Default : Да
Forced : Нет
Текст #3
Идентификатор : 8
Формат : UTF-8
Идентификатор кодека : S_TEXT/UTF8
Идентификатор кодека/Информация : UTF-8 Plain Text
Заголовок : Forced
Язык : Ukrainian
Default : Нет
Forced : Нет
Текст #4
Идентификатор : 9
Формат : UTF-8
Идентификатор кодека : S_TEXT/UTF8
Идентификатор кодека/Информация : UTF-8 Plain Text
Заголовок : Full
Язык : English
Default : Нет
Forced : Нет
Текст #5
Идентификатор : 10
Формат : UTF-8
Идентификатор кодека : S_TEXT/UTF8
Идентификатор кодека/Информация : UTF-8 Plain Text
Заголовок : SDH
Язык : English
Default : Нет
Forced : Нет
Текст #6
Идентификатор : 11
Формат : UTF-8
Идентификатор кодека : S_TEXT/UTF8
Идентификатор кодека/Информация : UTF-8 Plain Text
Заголовок : SDH Colored
Язык : English
Default : Нет
Forced : Нет
Меню
00:00:00.000 : :Chapter 01
00:02:26.895 : :Chapter 02
00:06:11.536 : :Chapter 03
00:08:58.453 : :Chapter 04
00:10:31.338 : :Chapter 05
00:12:47.558 : :Chapter 06
00:14:53.934 : :Chapter 07
00:17:02.145 : :Chapter 08
00:18:55.300 : :Chapter 09
00:21:14.647 : :Chapter 10
00:24:31.927 : :Chapter 11
00:26:25.750 : :Chapter 12
00:28:33.711 : :Chapter 13
00:30:35.291 : :Chapter 14
00:32:58.225 : :Chapter 15
00:34:20.640 : :Chapter 16
00:36:49.957 : :Chapter 17
00:38:32.435 : :Chapter 18
00:41:00.957 : :Chapter 19
00:44:43.055 : :Chapter 20
00:46:29.661 : :Chapter 21
00:48:46.214 : :Chapter 22
00:51:11.651 : :Chapter 23
00:53:11.354 : :Chapter 24
00:56:07.322 : :Chapter 25
01:00:34.088 : :Chapter 26
01:03:30.473 : :Chapter 27
01:05:45.399 : :Chapter 28
01:07:39.095 : :Chapter 29
01:11:06.303 : :Chapter 30
01:12:22.211 : :Chapter 31
01:16:03.350 : :Chapter 32
01:18:43.718 : :Chapter 33
01:21:31.468 : :Chapter 34
01:29:58.267 : :Chapter 35

-
Цитата:
* Сохранены оригинальные главы как на Blu-ray.
* Звуковая дорожка # 2 получена путем наложения чистого голоса на центральный канал декодированной оригинальной DTS-HD MA дорожки.
* Большое спасибо за помощь с проектом Нордер, BenderBEST и Прагматику за чистый голос Живова
* Версия на Блюрей вышла немного длиннее, чем на DVD поэтому есть места без перевода [00:15:50 - 00:16:29] [00:54:42 - 00:56:12] на эти места сделаны форсированные русские субтитры.

_________________
Показать сообщения:    

Текущее время: Сегодня 14:44

Часовой пояс: GMT



Вы не можете начинать темы
Вы не можете отвечать на сообщения
Вы не можете редактировать свои сообщения
Вы не можете удалять свои сообщения
Вы не можете голосовать в опросах
Вы не можете прикреплять файлы к сообщениям
Вы не можете скачивать файлы