Важное объявление!
У Нас Все раздачи мультитрекерные, при нуле пиров в релизах, можете смело вставать на закачку!
 
Автор Сообщение

HUNTER

Стаж:
4 года 4 месяца
Сообщений:
56772

Репутация: 101

[+] [-]
Вне форума [Профиль] [ЛС]

Сталинград
Выпущено: Россия, Арт Пикчерс Студия, Нон-стоп Продакшн
Жанр: боевик, драма, военный
Год выпуска: 2013
Продолжительность: 02:10:50
Субтитры: русские (форсированные, полные), английские
Режиссер: Фёдор Бондарчук
В ролях: Пётр Фёдоров, Томас Кречманн, Мария Смольникова, Янина Студилина, Дмитрий Лысенков, Алексей Барабаш, Андрей Смоляков, Олег Волку, Хайнер Лаутербах, Олег Тилькин, Ян Кузьмин, Кирилл Варакса, Полина Райкина, Юрий Уткин, Олег Малышев
Описание: 1942-й год. Сталинград. Советские войска планируют контрнаступление на немецкие части, занявшие правый берег Волги. Наступление сорвано. Лишь разведчикам под командованием капитана Громова удается перебраться на другой берег и закрепиться в одном из домов. Им дан приказ удержать его любой ценой. Кроме нескольких чудом уцелевших советских солдат они находят в доме его последнюю жительницу - 19-летнюю Катю.Приказ отбить дом, захваченный противником, получает немецкий офицер Кан. На фоне одного из самых кровопролитных сражений в истории человечества разворачиваются истории любви и драматического противостояния характеров.

Релиз: fanatus
Качество видео: BDRip 1080p
Исходник: STALINGRAD_2D_BD_EUR
Контейнер: MKV
Видео: MPEG-4 AVC, 10.8 Mbps , 1920x790 (2.40:1), 23.976 fps, 0.297 bit/pixel
Аудио 1: русский (DTS, 6 ch, 48 kHz, 1510 kbps)
Аудио 2: английский (DTS, 6 ch, 48 kHz, 1510 kbps)
Формат субтитров: softsub (SRT)
Главы: есть
MediaInfo
General
Unique ID : 248903719732596834494367750904263890485 (0xBB411CDA94009240831964DDFAB25635)
Complete name : E:\Stalingrad.2013.x264.BDRip.1080p.fanatus.mkv
Format : Matroska
Format version : Version 2
File size : 12.6 GiB
Duration : 2h 10mn
Overall bit rate : 13.8 Mbps
Movie name : Stalingrad (2013) - fanatus
Encoded date : UTC 2014-05-09 15:24:45
Writing application : mkvmerge v3.4.0 ('Rapunzel') сборка от May 15 2010 09:38:20
Writing library : libebml v0.8.0 + libmatroska v0.9.0
Video
ID : 1
Format : AVC
Format/Info : Advanced Video Codec
Format profile : High@L4.1
Format settings, CABAC : Yes
Format settings, ReFrames : 5 frames
Codec ID : V_MPEG4/ISO/AVC
Duration : 2h 10mn
Bit rate : 10.8 Mbps
Width : 1 920 pixels
Height : 790 pixels
Display aspect ratio : 2.40:1
Frame rate : 23.976 fps
Color space : YUV
Chroma subsampling : 4:2:0
Bit depth : 8 bits
Scan type : Progressive
Bits/(Pixel*Frame) : 0.297
Stream size : 9.62 GiB (76%)
Title : Stalingrad (2013) BDRip (1080p)
Writing library : x264 core 142 r2431+42 c69a006 tMod [8-bit@all X86]
Encoding settings : cabac=1 / ref=5 / deblock=1:-3:-3 / analyse=0x3:0x113 / me=tesa / subme=11 / psy=1 / fade_compensate=0.00 / psy_rd=1.00:0.10 / mixed_ref=1 / me_range=48 / chroma_me=1 / trellis=2 / 8x8dct=1 / cqm=0 / deadzone=21,11 / fast_pskip=0 / chroma_qp_offset=-3 / threads=16 / lookahead_threads=2 / sliced_threads=0 / nr=0 / decimate=0 / interlaced=0 / bluray_compat=0 / constrained_intra=0 / fgo=0 / bframes=9 / b_pyramid=2 / b_adapt=2 / b_bias=0 / direct=3 / weightb=1 / open_gop=0 / weightp=2 / keyint=240 / keyint_min=23 / scenecut=40 / intra_refresh=0 / rc_lookahead=240 / rc=2pass / mbtree=1 / bitrate=10800 / ratetol=1.0 / qcomp=0.70 / qpmin=0:0:0 / qpmax=69:69:69 / qpstep=4 / cplxblur=20.0 / qblur=0.5 / vbv_maxrate=50000 / vbv_bufsize=62500 / nal_hrd=none / filler=0 / ip_ratio=1.35 / aq=4:0.70 / aq-sensitivity=10.00 / aq-factor=1.00:1.00:1.00 / aq2=0 / aq3=0
Language : Russian
Default : Yes
Forced : No
Audio #1
ID : 2
Format : DTS
Format/Info : Digital Theater Systems
Codec ID : A_DTS
Duration : 2h 10mn
Bit rate mode : Constant
Bit rate : 1 510 Kbps
Channel(s) : 6 channels
Channel positions : Front: L C R, Side: L R, LFE
Sampling rate : 48.0 KHz
Bit depth : 16 bits
Compression mode : Lossy
Stream size : 1.38 GiB (11%)
Title : Original
Language : Russian
Default : Yes
Forced : No
Audio #2
ID : 3
Format : DTS
Format/Info : Digital Theater Systems
Codec ID : A_DTS
Duration : 2h 10mn
Bit rate mode : Constant
Bit rate : 1 510 Kbps
Channel(s) : 6 channels
Channel positions : Front: L C R, Side: L R, LFE
Sampling rate : 48.0 KHz
Bit depth : 16 bits
Compression mode : Lossy
Stream size : 1.38 GiB (11%)
Title : Dub
Language : English
Default : No
Forced : No
Text #1
ID : 4
Format : UTF-8
Codec ID : S_TEXT/UTF8
Codec ID/Info : UTF-8 Plain Text
Title : Forced
Language : Russian
Default : Yes
Forced : Yes
Text #2
ID : 5
Format : UTF-8
Codec ID : S_TEXT/UTF8
Codec ID/Info : UTF-8 Plain Text
Title : Full
Language : Russian
Default : No
Forced : No
Text #3
ID : 6
Format : UTF-8
Codec ID : S_TEXT/UTF8
Codec ID/Info : UTF-8 Plain Text
Title : Full
Language : English
Default : No
Forced : No
Menu
00:00:00.000 : en:Chapter 01
00:06:28.513 : en:Chapter 02
00:14:09.473 : en:Chapter 03
00:23:06.009 : en:Chapter 04
00:32:00.460 : en:Chapter 05
00:39:35.664 : en:Chapter 06
00:46:41.465 : en:Chapter 07
00:54:56.876 : en:Chapter 08
01:06:44.625 : en:Chapter 09
01:13:04.505 : en:Chapter 10
01:20:45.966 : en:Chapter 11
01:28:13.913 : en:Chapter 12
01:36:18.022 : en:Chapter 13
01:45:07.634 : en:Chapter 14
01:51:52.414 : en:Chapter 15
02:01:05.216 : en:Chapter 16
x264 [info]
x264 [info]: 1920x790p 1:1 @ 24000/1001 fps (cfr)
x264 [info]: started at Wed May 07 04:54:46 2014
x264 [info]: frame I:1210 Avg QP:13.35 size:279868
x264 [info]: frame P:44833 Avg QP:16.08 size:111921
x264 [info]: frame B:142189 Avg QP:17.99 size: 36871
x264 [info]: consecutive B-frames: 1.9% 7.2% 3.8% 39.2% 13.0% 18.2% 9.3% 6.8% 0.6% 0.0%
x264 [info]: mb I I16..4: 8.3% 70.6% 21.0%
x264 [info]: mb P I16..4: 0.5% 10.9% 1.3% P16..4: 30.5% 37.5% 17.3% 0.0% 0.0% skip: 2.0%
x264 [info]: mb B I16..4: 0.0% 1.5% 0.1% B16..8: 39.2% 22.4% 4.2% direct: 7.9% skip:24.6% L0:41.1% L1:41.8% BI:17.1%
x264 [info]: 8x8 transform intra:85.2% inter:49.9%
x264 [info]: direct mvs spatial:97.9% temporal:2.1%
x264 [info]: coded y,uvDC,uvAC intra: 94.0% 82.1% 63.0% inter: 37.8% 31.4% 13.0%
x264 [info]: i16 v,h,dc,p: 18% 13% 20% 48%
x264 [info]: i8 v,h,dc,ddl,ddr,vr,hd,vl,hu: 10% 9% 12% 10% 12% 10% 12% 11% 13%
x264 [info]: i4 v,h,dc,ddl,ddr,vr,hd,vl,hu: 16% 8% 7% 9% 14% 12% 12% 10% 12%
x264 [info]: i8c dc,h,v,p: 47% 25% 15% 12%
x264 [info]: Weighted P-Frames: Y:7.6% UV:3.7%
x264 [info]: ref P L0: 53.6% 10.8% 20.0% 7.5% 7.2% 0.8% 0.0%
x264 [info]: ref B L0: 86.1% 10.4% 2.7% 0.9%
x264 [info]: ref B L1: 95.3% 4.7%
x264 [info]: kb/s:10800.38
x264 [info]: encoded 188232 frames, 1.066 fps, 10800.38 kb/s, 10108 MB
x264 [info]: ended at Fri May 09 05:57:57 2014
x264 [info]: encoding duration 49:03:11
Скриншот c названием фильмаСкриншотыSource vs Rip
Source EUR

fanatus EUR

Sunny RUS

_________________
Показать сообщения:    

Текущее время: Сегодня 07:03

Часовой пояс: GMT



Вы не можете начинать темы
Вы не можете отвечать на сообщения
Вы не можете редактировать свои сообщения
Вы не можете удалять свои сообщения
Вы не можете голосовать в опросах
Вы не можете прикреплять файлы к сообщениям
Вы не можете скачивать файлы