Важное объявление!
У Нас Все раздачи мультитрекерные, при нуле пиров в релизах, можете смело вставать на закачку!
 
Автор Сообщение

HUNTER

Стаж:
4 года 4 месяца
Сообщений:
56734

Репутация: 101

[+] [-]
Вне форума [Профиль] [ЛС]

Стажёр / The Intern
Страна: США
Жанр: мелодрама, комедия
Год выпуска: 2015
Продолжительность: 02:01:30-Перевод: Профессиональный (дублированный) iTunes
Cубтитры: Russian (Forced, iTunes), Russian (iTunes), English (iTunes)
Оригинальная аудиодорожка: английский-Режиссер: Нэнси Майерс / Nancy Meyers-В ролях: Роберт Де Ниро, Энн Хэтэуэй, Рене Руссо, Андерс Холм, ДжоДжо Кушнер, Эндрю Рэннеллс, Адам Дивайн, Илан Кригсфелд, Зак Перлман, Джейсон Орли
Описание: 70-летний вдовец Бен Уитакер обнаруживает, что выход на пенсию — еще не конец. Пользуясь случаем, он становится старшим стажером в интернет-магазине модной одежды под руководством Джулс Остин.-Релиз от:
-Тип релиза: WEB-DL 1080p
Контейнер: MKV-Видео: MPEG4 Video (H264) 1912x1072p, ~ 4953 kbps, 23.976 fps, 0.101 bit/pixel-Аудио 1: Russian: 48 kHz, AC3, 3/2 (L,C,R,l,r) + LFE ch, ~384.00 kbps avg | iTunes Russia
Аудио 2: English: 48 kHz, AC3, 3/2 (L,C,R,l,r) + LFE ch, ~384.00 kbps avg | iTunes US

MediaInfo

General
Уникальный идентификатор : 213349509167359519806622100574910940070 (0xA0819EEEE2303DB2AA0733A0005A03A6)
Полное имя : E:\The.Intern.1080p.mkv
Формат : Matroska
Версия формата : Version 2
Размер файла : 4.96 GiB
Продолжительность : 2h 1mn
Общий поток : 5 838 Kbps
Название фильма : The Intern (2015) - Release for HDCLUB
Дата кодирования : UTC 2015-12-30 21:43:41
Программа кодирования : mkvmerge v3.4.0 ('Rapunzel') built on May 15 2010 09:38:20
Библиотека кодирования : libebml v0.8.0 + libmatroska v0.9.0
Attachements : cover_land.jpg / small_cover.jpg / small_cover_land.jpg / cover.jpg
Video
Идентификатор : 1
Формат : AVC
Формат/Информация : Advanced Video Codec
Профиль формата : High@L4.0
Параметр CABAC формата : Yes
Параметр ReFrames формата : 4 frames
Идентификатор кодека : V_MPEG4/ISO/AVC
Продолжительность : 2h 1mn
Битрейт : 4 953 Kbps
Ширина : 1 912 pixels
Высота : 1 072 pixels
Соотношение сторон : 16:9
Режим частоты кадров : Constant
Частота кадров : 23.976 fps
Цветовое пространство : YUV
Субдискретизация насыщенности : 4:2:0
Битовая глубина : 8 bits
Тип развёртки : Progressive
Бит/(Пиксели*Кадры) : 0.101
Размер потока : 4.21 GiB (85%)
Заголовок : The Intern (2015) - Release for HDCLUB
Язык : English
Default : Yes
Forced : No
Основные цвета : BT.709
Характеристики трансфера : BT.709
Коэффициенты матрицы : BT.709
colour_range : Limited
Audio #1
Идентификатор : 2
Формат : AC-3
Формат/Информация : Audio Coding 3
Расширение режима : CM (complete main)
Параметр Endianness формата : Big
Идентификатор кодека : A_AC3
Продолжительность : 2h 1mn
Вид битрейта : Constant
Битрейт : 384 Kbps
Каналы : 6 channels
Расположение каналов : Front: L C R, Side: L R, LFE
Частота : 48.0 KHz
Битовая глубина : 16 bits
Метод сжатия : Lossy
Размер потока : 334 MiB (7%)
Заголовок : AC3 5.1 @ 384 kbps - DUB, iTunes
Язык : Russian
Default : Yes
Forced : No
Audio #2
Идентификатор : 3
Формат : AC-3
Формат/Информация : Audio Coding 3
Расширение режима : CM (complete main)
Параметр Endianness формата : Big
Идентификатор кодека : A_AC3
Продолжительность : 2h 1mn
Вид битрейта : Constant
Битрейт : 384 Kbps
Каналы : 6 channels
Расположение каналов : Front: L C R, Side: L R, LFE
Частота : 48.0 KHz
Битовая глубина : 16 bits
Метод сжатия : Lossy
Размер потока : 334 MiB (7%)
Заголовок : AC3 5.1 @ 384 kbps
Язык : English
Default : No
Forced : No
Text #1
Идентификатор : 4
Формат : UTF-8
Идентификатор кодека : S_TEXT/UTF8
Идентификатор кодека/Информация : UTF-8 Plain Text
Заголовок : Forced, iTunes
Язык : Russian
Default : Yes
Forced : No
Text #2
Идентификатор : 5
Формат : UTF-8
Идентификатор кодека : S_TEXT/UTF8
Идентификатор кодека/Информация : UTF-8 Plain Text
Заголовок : iTunes
Язык : Russian
Default : No
Forced : No
Text #3
Идентификатор : 6
Формат : UTF-8
Идентификатор кодека : S_TEXT/UTF8
Идентификатор кодека/Информация : UTF-8 Plain Text
Заголовок : iTunes
Язык : English
Default : No
Forced : No
Menu
00:00:00.000 : en:1
00:09:30.000 : en:2
00:19:54.000 : en:3
00:29:39.000 : en:4
00:30:29.000 : en:5
00:41:17.000 : en:6
00:50:18.000 : en:7
01:00:33.000 : en:8
01:10:18.000 : en:9
01:19:15.000 : en:10
01:30:58.000 : en:11
01:42:48.000 : en:12
01:51:10.000 : en:13
01:56:41.000 : en:14

Скриншоты


_________________
Показать сообщения:    

Текущее время: Сегодня 06:49

Часовой пояс: GMT



Вы не можете начинать темы
Вы не можете отвечать на сообщения
Вы не можете редактировать свои сообщения
Вы не можете удалять свои сообщения
Вы не можете голосовать в опросах
Вы не можете прикреплять файлы к сообщениям
Вы не можете скачивать файлы