Важное объявление!
У Нас Все раздачи мультитрекерные, при нуле пиров в релизах, можете смело вставать на закачку!
 
Автор Сообщение

HUNTER

Стаж:
4 года 4 месяца
Сообщений:
56749

Репутация: 101

[+] [-]
Вне форума [Профиль] [ЛС]

Спящий лагерьSleepaway Camp«Ты не попадёшь домой»-
Страна: США
Жанр: ужасы
Год выпуска: 1983
Продолжительность: 01:24:51
Перевод: Профессиональный (многоголосый закадровый) R5
Перевод 2: Авторский (одноголосый закадровый) Визгунов
Cубтитры: английские
Оригинальная аудиодорожка: английский
Режиссер: Роберт Хилтзик / Robert Hiltzik
В ролях: Фелисса Роуз, Джонатан Тирстен, Карен Филдс, Кристофер Коллет, Майк Келлин, Кэтрин Кэми, Пол ДеАнджело, Томас Е. ван Делл, Лорис Саллахиан, Джон Э. Данн
Описание: На озере тонет яхта с мужчиной и двумя его детьми на борту. Катающиеся рядом на катерах подростки не обратили внимания на разыгравшуюся трагедию. В результате их неосторожной езды мужчина и его сын погибают. Оставшаяся в живых девочка Анжела отправляется жить вместе со своей тётей Мартой и двоюродным братом Рикки. Только теперь девочка постоянно молчит, перенеся сильный травматический шок. Восемь лет спустя Анжела и Рикки отправляются в летний лагерь, на озеро, где погибли её отец и брат. Необщительная Анжела становится предметом нападок и шуток со стороны подростков. Она не устраивает своим поведением даже взрослых. И вскоре люди, которые причиняли ей боль, начинают погибать от рук таинственного убийцы…

MPAA: R - Лицам до 17 лет обязательно присутствие взрослого-
Автор рипа: Vikosol
Тип релиза: BDRip 720p
Контейнер: MKV
Видео: AVC, 1280x720 (16:9), 13071 kbps, 23,976 fps, 0,592 bpp
Аудио №1: русский / AC3 / 2.0 / 48 kHz / 192 kbps / 16 bit |MVO|
Аудио №2: русский / AC3 / 2.0 / 48 kHz / 192 kbps / 16 bit |Визгунов|
Аудио №3: английский / DTS / 2.0 / 48 kHz / 1510 kbps / 24 bit
Навигация по главам: есть
Формат субтитров: softsub (SRT)
source vs riplog x264
Код:
x264 [info]: frame I:784   Avg QP:17.18  size:211769
x264 [info]: frame P:20652 Avg QP:18.33  size: 98436
x264 [info]: frame B:100603 Avg QP:20.49  size: 62733
x264 [info]: consecutive B-frames:  0.9%  0.6%  2.0%  9.2%  9.6% 51.5%  7.2%  2.0%  6.9%  1.7%  4.4%  4.2%
x264 [info]: mb I  I16..4:  2.4% 83.5% 14.0%
x264 [info]: mb P  I16..4:  0.6% 29.1%  2.3%  P16..4: 23.1% 30.4% 13.7%  0.0%  0.0%    skip: 0.9%
x264 [info]: mb B  I16..4:  0.1% 12.1%  0.2%  B16..8: 34.4% 22.7%  5.9%  direct:15.6%  skip: 9.0%  L0:44.8% L1:36.7% BI:18.5%
x264 [info]: 8x8 transform intra:94.9% inter:58.4%
x264 [info]: coded y,uvDC,uvAC intra: 98.7% 91.5% 76.7% inter: 69.8% 64.8% 23.3%
x264 [info]: i16 v,h,dc,p: 12%  8% 15% 64%
x264 [info]: i8 v,h,dc,ddl,ddr,vr,hd,vl,hu:  8%  8% 12% 10% 13% 12% 13% 11% 13%
x264 [info]: i4 v,h,dc,ddl,ddr,vr,hd,vl,hu:  7%  7%  5% 11% 15% 14% 14% 12% 15%
x264 [info]: i8c dc,h,v,p: 50% 19% 15% 15%
x264 [info]: Weighted P-Frames: Y:11.7% UV:8.4%
x264 [info]: ref P L0: 32.8% 10.0% 18.8%  9.2%  8.2%  6.3%  6.1%  4.0%  4.1%  0.4%  0.0%
x264 [info]: ref B L0: 60.7% 14.6%  8.9%  5.3%  4.4%  3.7%  1.9%  0.5%
x264 [info]: ref B L1: 88.3% 11.7%
x264 [info]: kb/s:13375.26
MediaInfo
Код:
Format                                   : Matroska
Format version                           : Version 4 / Version 2
File size                                : 9.05 GiB
Duration                                 : 1h 24mn
Overall bit rate                         : 15.3 Mbps
Encoded date                             : UTC 2014-05-08 08:51:09
Writing application                      : mkvmerge v6.8.0 ('Theme for Great Cities') 64bit built on Mar  2 2014 21:34:26
Writing library                          : libebml v1.3.0 + libmatroska v1.4.1
Video
ID                                       : 1
Format                                   : AVC
Format/Info                              : Advanced Video Codec
Format profile                           : High@L4.1
Format settings, CABAC                   : Yes
Format settings, ReFrames                : 9 frames
Codec ID                                 : V_MPEG4/ISO/AVC
Duration                                 : 1h 24mn
Bit rate                                 : 13.1 Mbps
Width                                    : 1 280 pixels
Height                                   : 720 pixels
Display aspect ratio                     : 16:9
Frame rate                               : 23.976 fps
Color space                              : YUV
Chroma subsampling                       : 4:2:0
Bit depth                                : 8 bits
Scan type                                : Progressive
Bits/(Pixel*Frame)                       : 0.592
Stream size                              : 7.75 GiB (86%)
Writing library                          : x264 core 142 r2431+42 c69a006 tMod [8-bit@all X86_64]
Encoding settings                        : cabac=1 / ref=9 / deblock=1:-3:-3 / analyse=0x3:0x113 / me=umh / subme=11 / psy=1 / fade_compensate=0.00 / psy_rd=0.95:0.00 / mixed_ref=1 / me_range=24 / chroma_me=1 / trellis=2 / 8x8dct=1 / cqm=0 / deadzone=21,11 / fast_pskip=0 / chroma_qp_offset=-2 / threads=6 / lookahead_threads=1 / sliced_threads=0 / nr=0 / decimate=0 / interlaced=0 / bluray_compat=0 / constrained_intra=0 / fgo=0 / bframes=11 / b_pyramid=2 / b_adapt=2 / b_bias=0 / direct=1 / weightb=1 / open_gop=0 / weightp=2 / keyint=240 / keyint_min=23 / scenecut=40 / intra_refresh=0 / rc=crf / mbtree=0 / crf=17.5000 / qcomp=0.70 / qpmin=0:0:0 / qpmax=69:69:69 / qpstep=4 / ip_ratio=1.40 / pb_ratio=1.30 / aq=4:0.75 / aq-sensitivity=10.00 / aq-factor=1.00:1.00:1.00 / aq2=0 / aq3=0
Language                                 : English
Default                                  : Yes
Forced                                   : No
Audio #1
ID                                       : 2
Format                                   : AC-3
Format/Info                              : Audio Coding 3
Mode extension                           : CM (complete main)
Codec ID                                 : A_AC3
Duration                                 : 1h 24mn
Bit rate mode                            : Constant
Bit rate                                 : 192 Kbps
Channel(s)                               : 2 channels
Channel positions                        : Front: L R
Sampling rate                            : 48.0 KHz
Bit depth                                : 16 bits
Compression mode                         : Lossy
Stream size                              : 117 MiB (1%)
Title                                    : R5
Language                                 : Russian
Default                                  : Yes
Forced                                   : No
Audio #2
ID                                       : 3
Format                                   : AC-3
Format/Info                              : Audio Coding 3
Mode extension                           : CM (complete main)
Codec ID                                 : A_AC3
Duration                                 : 1h 24mn
Bit rate mode                            : Constant
Bit rate                                 : 192 Kbps
Channel(s)                               : 2 channels
Channel positions                        : Front: L R
Sampling rate                            : 48.0 KHz
Bit depth                                : 16 bits
Compression mode                         : Lossy
Stream size                              : 117 MiB (1%)
Title                                    : Визгунов
Language                                 : Russian
Default                                  : No
Forced                                   : No
Audio #3
ID                                       : 4
Format                                   : DTS
Format/Info                              : Digital Theater Systems
Codec ID                                 : A_DTS
Duration                                 : 1h 24mn
Bit rate mode                            : Constant
Bit rate                                 : 1 510 Kbps
Channel(s)                               : 2 channels
Channel positions                        : Front: L R
Sampling rate                            : 48.0 KHz
Bit depth                                : 24 bits
Compression mode                         : Lossy
Stream size                              : 916 MiB (10%)
Language                                 : English
Default                                  : No
Forced                                   : No
Text
ID                                       : 5
Format                                   : UTF-8
Codec ID                                 : S_TEXT/UTF8
Codec ID/Info                            : UTF-8 Plain Text
Language                                 : English
Default                                  : No
Forced                                   : No
Menu
00:00:00.000                             : :Chapter 01
00:06:24.174                             : :Chapter 02
00:13:42.946                             : :Chapter 03
00:22:37.355                             : :Chapter 04
00:26:49.357                             : :Chapter 05
00:37:43.552                             : :Chapter 06
00:42:35.886                             : :Chapter 07
00:51:23.288                             : :Chapter 08
00:57:31.698                             : :Chapter 09
01:04:27.863                             : :Chapter 10
01:09:44.513                             : :Chapter 11
01:18:31.707                             : :Chapter 12
Знаете ли Вы, что...
  • Другое русскоязычное название фильма - «Лагерь вечных снов».
  • Некоторые отдыхающие, выходящие из автобуса в начале фильма, являются родственниками актеров и членов съемочной группы.
  • В Великобритании фильм вышел под названием «Nightmare Vacation» («Кошмарные каникулы»).
  • Режиссёр Роберт Хилтзик посвятил картину своей матери.
  • Изначально Джейн Краковски должна была играть Джуди.
  • еще 2 факта
    СкриншотыЦитата:
    Цитата:

    • За исходник спасибо HD TRACKER

  • _________________
    Показать сообщения:    

    Текущее время: Сегодня 19:25

    Часовой пояс: GMT



    Вы не можете начинать темы
    Вы не можете отвечать на сообщения
    Вы не можете редактировать свои сообщения
    Вы не можете удалять свои сообщения
    Вы не можете голосовать в опросах
    Вы не можете прикреплять файлы к сообщениям
    Вы не можете скачивать файлы