Важное объявление!
У Нас Все раздачи мультитрекерные, при нуле пиров в релизах, можете смело вставать на закачку!
 
Автор Сообщение

HUNTER

Стаж:
4 года 4 месяца
Сообщений:
56749

Репутация: 101

[+] [-]
Вне форума [Профиль] [ЛС]

Сплошные неприятности / Nothing But Trouble
Страна: США
Жанр: комедия
Год выпуска: 1991
Продолжительность: 01:33:12
Перевод 1: Профессиональный (дублированный) Варус Видео
Перевод 2: Профессиональный (многоголосый закадровый) НТВ+
Перевод 3: Авторский (одноголосый закадровый) Алексей Михалёв
Cубтитры: английские
Оригинальная аудиодорожка: английский
Режиссер: Дэн Эйкройд / Dan Aykroyd
В ролях: Чеви Чейз, Дэн Эйкройд, Джон Кэнди, Деми Мур, Вэлри Бромфилд, Тейлор Негрон, Бертила Дамас, Рэймонд Дж. Бэрри, Брайан Дойл-Мюррей, Джон Уэсли...
Описание: Издатель финансового журнала Крис вызвался отвезти в Атлантик-сити обворожительную адвокатессу Дайану, за ними увязалась парочка латиноамериканских миллионеров — брат и сестра — Фаусто и Реналда. Все надеялись на веселое времяпрепровождение, а вышло…
Начались все беды с сущего пустяка: Крис нарушил правила дорожного движения в провинциальном городке. За его шикарным БМВ погнался полицейский Дэннис, от которого отвязаться не удалось. Дэннис и его напарница сопроводили автомобиль до здания городского суда, в котором правит судья Элвин. Переступив порог особняка, четверка путешественников-неудачников оказались, как будто в другой стране, в другое время…
Доп. информация:
За оцифровку VHS с дубляжом спасибо Fikaloid.
Перевод НТВ+ с раздачи MacSim47.
Перевод Михалёва с раздачи IVH.
Синхронизация звука - Dreven.
Сэмпл: http://multi-up.com/1056699
Тип релиза: WEB-DL 1080p
Контейнер: MKV
Видео: 1912x1074 (16:9), 23.976 fps, AVC, ~5252 Kbps, 0.107 bits/pixel
Аудио 1: Russian, 48.0 KHz, AC3, 2 ch, 192 Kbps - Варус Видео
Аудио 2: Russian, 48.0 KHz, AC3, 2 ch, 192 Kbps - НТВ+
Аудио 3: Russian, 48.0 KHz, AC3, 2 ch, 192 Kbps - Алексей Михалёв
Аудио 4: English, 48.0 KHz, AC3, 2 ch, 192 Kbps

MediaInfo

General
Unique ID : 198440156382988092669470780179425634488 (0x954A2F1657FEB1F692912CF72FC9A8B8)
Complete name : D:\Nothing But Trouble. WEB-DL 1080p.mkv
Format : Matroska
Format version : Version 4 / Version 2
File size : 4.00 GiB
Duration : 1h 33mn
Overall bit rate : 6 143 Kbps
Movie name :
Encoded date : UTC 2015-06-26 11:44:56
Writing application : mkvmerge v8.0.0 ('Til The Day That I Die') 64bit
Writing library : libebml v1.3.1 + libmatroska v1.4.2
DURATION : 01:33:12.288000000
NUMBER_OF_FRAMES : 174759
NUMBER_OF_BYTES : 134214912
_STATISTICS_WRITING_APP : mkvmerge v8.0.0 ('Til The Day That I Die') 64bit
_STATISTICS_WRITING_DATE_UT : 2015-06-26 11:44:56
_STATISTICS_TAGS : BPS DURATION NUMBER_OF_FRAMES NUMBER_OF_BYTES
Video
ID : 1
Format : AVC
Format/Info : Advanced Video Codec
Format profile : High@L4
Format settings, CABAC : Yes
Format settings, ReFrames : 4 frames
Codec ID : V_MPEG4/ISO/AVC
Duration : 1h 33mn
Bit rate : 5 252 Kbps
Width : 1 912 pixels
Height : 1 074 pixels
Display aspect ratio : 16:9
Frame rate mode : Constant
Frame rate : 23.976 fps
Color space : YUV
Chroma subsampling : 4:2:0
Bit depth : 8 bits
Scan type : Progressive
Bits/(Pixel*Frame) : 0.107
Stream size : 3.42 GiB (86%)
Language : English
Default : Yes
Forced : No
Color range : Limited
Color primaries : BT.709
Transfer characteristics : BT.709
Matrix coefficients : BT.709
Audio #1
ID : 2
Format : AC-3
Format/Info : Audio Coding 3
Mode extension : CM (complete main)
Format settings, Endianness : Big
Codec ID : A_AC3
Duration : 1h 33mn
Bit rate mode : Constant
Bit rate : 192 Kbps
Channel(s) : 2 channels
Channel positions : Front: L R
Sampling rate : 48.0 KHz
Compression mode : Lossy
Stream size : 128 MiB (3%)
Title : Варус Видео
Language : Russian
Default : Yes
Forced : No
Audio #2
ID : 3
Format : AC-3
Format/Info : Audio Coding 3
Mode extension : CM (complete main)
Format settings, Endianness : Big
Codec ID : A_AC3
Duration : 1h 33mn
Bit rate mode : Constant
Bit rate : 192 Kbps
Channel(s) : 2 channels
Channel positions : Front: L R
Sampling rate : 48.0 KHz
Compression mode : Lossy
Stream size : 128 MiB (3%)
Title : НТВ+
Language : Russian
Default : No
Forced : No
Audio #3
ID : 4
Format : AC-3
Format/Info : Audio Coding 3
Mode extension : CM (complete main)
Format settings, Endianness : Big
Codec ID : A_AC3
Duration : 1h 33mn
Bit rate mode : Constant
Bit rate : 192 Kbps
Channel(s) : 2 channels
Channel positions : Front: L R
Sampling rate : 48.0 KHz
Compression mode : Lossy
Stream size : 128 MiB (3%)
Title : Алексей Михалёв
Language : Russian
Default : No
Forced : No
Audio #4
ID : 5
Format : AC-3
Format/Info : Audio Coding 3
Mode extension : CM (complete main)
Format settings, Endianness : Big
Codec ID : A_AC3
Duration : 1h 33mn
Bit rate mode : Constant
Bit rate : 192 Kbps
Channel(s) : 2 channels
Channel positions : Front: L R
Sampling rate : 48.0 KHz
Compression mode : Lossy
Stream size : 128 MiB (3%)
Language : English
Default : No
Forced : No
Text
ID : 6
Format : UTF-8
Codec ID : S_TEXT/UTF8
Codec ID/Info : UTF-8 Plain Text
Language : English
Default : No
Forced : No

Скриншоты


_________________
Показать сообщения:    

Текущее время: Сегодня 19:38

Часовой пояс: GMT



Вы не можете начинать темы
Вы не можете отвечать на сообщения
Вы не можете редактировать свои сообщения
Вы не можете удалять свои сообщения
Вы не можете голосовать в опросах
Вы не можете прикреплять файлы к сообщениям
Вы не можете скачивать файлы