Важное объявление!
У Нас Все раздачи мультитрекерные, при нуле пиров в релизах, можете смело вставать на закачку!
 
Автор Сообщение

HUNTER

Стаж:
4 года 4 месяца
Сообщений:
56809

Репутация: 101

[+] [-]
Вне форума [Профиль] [ЛС]

Список Шиндлера / Schindler's List
Год выпуска: 1993
Страна: США
Жанр: драма, военный, биография, история
Продолжительность: 03:15:12
Перевод: Профессиональный (дублированный) - Blu-Ray CEE (Ист-Вест)
Перевод 2: Многоголосый закадровый - Киномания
Перевод 3: Многоголосый закадровый
Перевод 4: Авторский (одноголосый закадровый) - В. Горчаков
Перевод 5: Авторский (одноголосый закадровый) - С. Визгунов
Перевод 6: Авторский (одноголосый закадровый) - Ю. Сербин (перевод 2012 года)
Перевод 7: Авторский (одноголосый закадровый) - Ю. Живов
Субтитры: русские (forced), русские (CEE), русские (R5), русские (Киномания), английские
Оригинальная аудиодорожка: английская
Режиссёр: Стивен Спилберг / Steven Spielberg
В ролях: Лиам Нисон, Бен Кингсли, Рэйф Файнс, Кэролайн Гудолл, Эмбет Дэвидц, Джонатан Сагалл, Малгоша Гебель, Шмуэль Леви, Марк Иванир, Беатриче Макола
Описание: Лента рассказывает реальную историю загадочного Оскара Шиндлера, члена нацистской партии, преуспевающего фабриканта, спасшего во время Второй мировой войны более тысячи ста евреев. Это триумф одного человека, не похожего на других, и драма тех, кто, благодаря ему, выжил в ужасный период человеческой истории.
Тип релиза: BDRip 1080p
Контейнер: MKV
Видео: MPEG-4 AVC, 1920x1040 (16:9), 23,976 fps, 14.6 Мбит/с
Аудио 1: Russian DTS 5.1 ch, 48 kHz, 24-bit, 768 kbps - дублированный
Аудио 2: Russian AC3, 5.1 ch, 48KHz, 16-bit, 448 Kbps - Киномания
Аудио 3: Russian AC3, 5.1 ch, 48KHz, 16-bit, 448 Kbps - MVO
Аудио 4: Russian AC3, 2.0 ch, 48KHz, 16-bit, 192 Kbps - В. Горчаков
Аудио 5: Russian AC3, 2.0 ch, 48KHz, 16-bit, 192 Kbps - С. Визгунов
Аудио 6: Russian DTS 5.1 ch, 48 kHz, 24-bit, 1536 kbps - Ю. Сербин
Аудио 7: Russian DTS 5.1 ch, 48 kHz, 24-bit, 1536 kbps - Ю. Живов
Аудио 8: English DTS 5.1 ch, 48 kHz, 24-bit, 1536 kbps
Формат субтитров: softsub (SRT)
Навигация по главам: есть
Сэмпл

MediaInfo

General
Unique ID : 178250264563549710285534036843204378171 (0x8619C090F3A84AA681F0FA79373EFE3B)
Complete name : E:\Список Шиндлера - Schindler's List (1993, BDRip 1080p).mkv
Format : Matroska
Format version : Version 4 / Version 2
File size : 29.3 GiB
Duration : 3h 15mn
Overall bit rate : 21.5 Mbps
Movie name : Список Шиндлера - Schindler's List (1993, BDRip 1080p)
Encoded date : UTC 2015-12-23 09:34:50
Writing application : mkvmerge v8.6.1 ('Flying') 64bit
Writing library : libebml v1.3.3 + libmatroska v1.4.4
Attachements : cover.jpg
DURATION : 03:00:35.241000000
NUMBER_OF_FRAMES : 1826
NUMBER_OF_BYTES : 60353
_STATISTICS_WRITING_APP : mkvmerge v8.6.1 ('Flying') 64bit
_STATISTICS_WRITING_DATE_UTC : 2015-12-23 09:34:50
_STATISTICS_TAGS : BPS DURATION NUMBER_OF_FRAMES NUMBER_OF_BYTES
Video
ID : 1
Format : AVC
Format/Info : Advanced Video Codec
Format profile : High@L4.1
Format settings, CABAC : Yes
Format settings, ReFrames : 4 frames
Codec ID : V_MPEG4/ISO/AVC
Duration : 3h 15mn
Width : 1 920 pixels
Height : 1 040 pixels
Display aspect ratio : 1.85:1
Frame rate mode : Constant
Frame rate : 23.976 fps
Color space : YUV
Chroma subsampling : 4:2:0
Bit depth : 8 bits
Scan type : Progressive
Writing library : x264 core 129 r2245 bc13772
Encoding settings : cabac=1 / ref=4 / deblock=1:-1:-1 / analyse=0x3:0x113 / me=umh / subme=9 / psy=1 / psy_rd=1.00:0.15 / mixed_ref=1 / me_range=24 / chroma_me=1 / trellis=2 / 8x8dct=1 / cqm=0 / deadzone=21,11 / fast_pskip=1 / chroma_qp_offset=-3 / threads=6 / lookahead_threads=1 / sliced_threads=0 / nr=0 / decimate=1 / interlaced=0 / bluray_compat=0 / constrained_intra=0 / bframes=8 / b_pyramid=2 / b_adapt=2 / b_bias=0 / direct=1 / weightb=0 / open_gop=0 / weightp=2 / keyint=230 / keyint_min=23 / scenecut=40 / intra_refresh=0 / rc=crf / mbtree=0 / crf=19.0 / qcomp=0.60 / qpmin=0 / qpmax=69 / qpstep=4 / ip_ratio=1.40 / pb_ratio=1.30 / aq=1:1.00
Default : Yes
Forced : No
DURATION : 03:15:12.701000000
NUMBER_OF_FRAMES : 280824
NUMBER_OF_BYTES : 21845696721
_STATISTICS_WRITING_APP : mkvmerge v8.6.1 ('Flying') 64bit
_STATISTICS_WRITING_DATE_UTC : 2015-12-23 09:34:50
_STATISTICS_TAGS : BPS DURATION NUMBER_OF_FRAMES NUMBER_OF_BYTES
Audio #1
ID : 2
Format : DTS
Format/Info : Digital Theater Systems
Mode : 16
Format settings, Endianness : Big
Codec ID : A_DTS
Duration : 3h 15mn
Bit rate mode : Constant
Bit rate : 768 Kbps
Channel(s) : 6 channels
Channel positions : Front: L C R, Side: L R, LFE
Sampling rate : 48.0 KHz
Bit depth : 24 bits
Compression mode : Lossy
Stream size : 1.05 GiB (4%)
Title : Dub (Blu-ray CEE)
Language : Russian
Default : Yes
Forced : No
Audio #2
ID : 3
Format : AC-3
Format/Info : Audio Coding 3
Mode extension : CM (complete main)
Format settings, Endianness : Big
Codec ID : A_AC3
Duration : 3h 15mn
Bit rate mode : Constant
Bit rate : 448 Kbps
Channel(s) : 6 channels
Channel positions : Front: L C R, Side: L R, LFE
Sampling rate : 48.0 KHz
Bit depth : 16 bits
Compression mode : Lossy
Stream size : 626 MiB (2%)
Title : MVO (Kinomania)
Language : Russian
Default : No
Forced : No
Audio #3
ID : 4
Format : AC-3
Format/Info : Audio Coding 3
Mode extension : CM (complete main)
Format settings, Endianness : Big
Codec ID : A_AC3
Duration : 3h 15mn
Bit rate mode : Constant
Bit rate : 448 Kbps
Channel(s) : 6 channels
Channel positions : Front: L C R, Side: L R, LFE
Sampling rate : 48.0 KHz
Bit depth : 16 bits
Compression mode : Lossy
Stream size : 626 MiB (2%)
Title : MVO
Language : Russian
Default : No
Forced : No
Audio #4
ID : 5
Format : AC-3
Format/Info : Audio Coding 3
Mode extension : CM (complete main)
Format settings, Endianness : Big
Codec ID : A_AC3
Duration : 3h 15mn
Bit rate mode : Constant
Bit rate : 192 Kbps
Channel(s) : 2 channels
Channel positions : Front: L R
Sampling rate : 48.0 KHz
Bit depth : 16 bits
Compression mode : Lossy
Stream size : 268 MiB (1%)
Title : AVO (Gorchakov)
Language : Russian
Default : No
Forced : No
Audio #5
ID : 6
Format : AC-3
Format/Info : Audio Coding 3
Mode extension : CM (complete main)
Format settings, Endianness : Big
Codec ID : A_AC3
Duration : 3h 15mn
Bit rate mode : Constant
Bit rate : 192 Kbps
Channel(s) : 2 channels
Channel positions : Front: L R
Sampling rate : 48.0 KHz
Bit depth : 16 bits
Compression mode : Lossy
Stream size : 268 MiB (1%)
Title : AVO (Vizgunov)
Language : Russian
Default : No
Forced : No
Audio #6
ID : 7
Format : DTS
Format/Info : Digital Theater Systems
Mode : 16
Format settings, Endianness : Big
Codec ID : A_DTS
Duration : 3h 15mn
Bit rate mode : Constant
Bit rate : 1 509 Kbps
Channel(s) : 6 channels
Channel positions : Front: L C R, Side: L R, LFE
Sampling rate : 48.0 KHz
Bit depth : 24 bits
Compression mode : Lossy
Stream size : 2.06 GiB (7%)
Title : AVO (Serbin) v.2012
Language : Russian
Default : No
Forced : No
Audio #7
ID : 8
Format : DTS
Format/Info : Digital Theater Systems
Codec ID : A_DTS
Duration : 3h 15mn
Channel(s) : 6 channels
Sampling rate : 48.0 KHz
Compression mode : Lossy
Title : AVO (Jivov)
Language : Russian
Default : No
Forced : No
Audio #8
ID : 9
Format : DTS
Format/Info : Digital Theater Systems
Codec ID : A_DTS
Duration : 3h 15mn
Channel(s) : 6 channels
Sampling rate : 48.0 KHz
Compression mode : Lossy
Title : original
Language : English
Default : No
Forced : No
Text #1
ID : 10
Format : UTF-8
Codec ID : S_TEXT/UTF8
Codec ID/Info : UTF-8 Plain Text
Title : forced
Language : Russian
Default : Yes
Forced : No
Text #2
ID : 11
Format : UTF-8
Codec ID : S_TEXT/UTF8
Codec ID/Info : UTF-8 Plain Text
Title : CEE
Language : Russian
Default : No
Forced : No
Text #3
ID : 12
Format : UTF-8
Codec ID : S_TEXT/UTF8
Codec ID/Info : UTF-8 Plain Text
Title : R5
Language : Russian
Default : No
Forced : No
Text #4
ID : 13
Format : UTF-8
Codec ID : S_TEXT/UTF8
Codec ID/Info : UTF-8 Plain Text
Title : Kinomania
Language : Russian
Default : No
Forced : No
Text #5
ID : 14
Format : UTF-8
Codec ID : S_TEXT/UTF8
Codec ID/Info : UTF-8 Plain Text
Language : English
Default : No
Forced : No
Menu #1
00:00:00.000 : en:Mrs. Schindler
00:03:23.160 : en:Getting Supplies
00:10:12.153 : en:Setting Up the Business
00:14:51.307 : en:Finding Investors
00:17:28.714 : en:March 20, 1941: Deadline for Entering the Ghetto
00:21:42.384 : en:Making Deals
00:23:48.009 : en:The Judenrat
00:30:37.669 : en:Preparing for Dinner
00:34:23.728 : en:Main Titles
00:41:43.751 : en:A One-Armed Machinist
00:44:16.737 : en:Forgotten Papers
00:50:55.761 : en:Amon Goeth
00:55:09.431 : en:"Today Is History"
00:56:44.859 : en:March 13, 1943: Liquidation of the Ghetto
01:13:44.753 : en:Working for Goeth
01:17:05.704 : en:How Much Is a Worker Worth?
01:26:02.115 : en:Making Hindges
01:29:26.319 : en:Moving the Workforce
01:32:01.182 : en:A Haven
01:38:36.869 : en:Helen Hirsch
01:43:19.776 : en:"That Is Power"
01:49:36.611 : en:A Manicure
01:55:45.980 : en:The Birthday Kiss
01:58:42.824 : en:Making Room
02:02:59.789 : en:The Children Hiding
02:06:49.310 : en:Waiting on the Trains
02:10:11.637 : en:They Have No Future
02:13:44.725 : en:Incinerating the Bodies
02:18:21.376 : en:Buying the Workforce
02:26:46.506 : en:The List
02:34:15.620 : en:Auschwitz
02:38:48.018 : en:"I Want These"
02:41:15.415 : en:Leaving Auschwitz
02:46:21.763 : en:Mrs. Schindler Returns
02:48:12.332 : en:The Sabbath
02:50:23.171 : en:"Do You Have Any Money?"
02:55:28.392 : en:The Ring
03:01:51.358 : en:Liberation
03:05:06.720 : en:The Schindler Jews Today
03:08:51.278 : en:End Titles
Menu #2
00:00:00.000 : en:00:00:00.000
00:03:23.161 : en:00:03:23.161
00:10:12.153 : en:00:10:12.153
00:14:51.307 : en:00:14:51.307
00:17:28.714 : en:00:17:28.714
00:21:42.384 : en:00:21:42.384
00:23:48.010 : en:00:23:48.010
00:30:37.669 : en:00:30:37.669
00:34:23.728 : en:00:34:23.728
00:41:43.751 : en:00:41:43.751
00:44:16.737 : en:00:44:16.737
00:50:55.761 : en:00:50:55.761
00:55:09.431 : en:00:55:09.431
00:56:44.860 : en:00:56:44.860
01:13:44.754 : en:01:13:44.754
01:17:05.704 : en:01:17:05.704
01:26:02.115 : en:01:26:02.115
01:29:26.319 : en:01:29:26.319
01:32:01.182 : en:01:32:01.182
01:38:36.869 : en:01:38:36.869
01:43:19.777 : en:01:43:19.777
01:49:36.612 : en:01:49:36.612
01:55:45.981 : en:01:55:45.981
01:58:42.824 : en:01:58:42.824
02:02:59.789 : en:02:02:59.789
02:06:49.310 : en:02:06:49.310
02:10:11.637 : en:02:10:11.637
02:13:44.725 : en:02:13:44.725
02:18:21.376 : en:02:18:21.376
02:26:46.506 : en:02:26:46.506
02:34:15.621 : en:02:34:15.621
02:38:48.018 : en:02:38:48.018
02:41:15.416 : en:02:41:15.416
02:46:21.763 : en:02:46:21.763
02:48:12.332 : en:02:48:12.332
02:50:23.171 : en:02:50:23.171
02:55:28.393 : en:02:55:28.393
03:01:51.359 : en:03:01:51.359
03:05:06.721 : en:03:05:06.721
03:08:51.278 : en:03:08:51.278

Скриншоты


_________________
Показать сообщения:    

Текущее время: Сегодня 20:26

Часовой пояс: GMT



Вы не можете начинать темы
Вы не можете отвечать на сообщения
Вы не можете редактировать свои сообщения
Вы не можете удалять свои сообщения
Вы не можете голосовать в опросах
Вы не можете прикреплять файлы к сообщениям
Вы не можете скачивать файлы