Важное объявление!
У Нас Все раздачи мультитрекерные, при нуле пиров в релизах, можете смело вставать на закачку!
 
Автор Сообщение

HUNTER

Стаж:
4 года 4 месяца
Сообщений:
56839

Репутация: 101

[+] [-]
Вне форума [Профиль] [ЛС]

Специалист по съему / The Pick-up Artist
Страна: США
Студия: 20th Century Fox Film Corporation
Жанр: мелодрама, комедия, криминал
Год выпуска: 1987
Продолжительность: 01:21:29
Перевод: Авторский (одноголосый закадровый) А. Алексеев
Перевод 2: Авторский (одноголосый закадровый) С. Визгунов
Cубтитры: русские, английские
Оригинальная аудиодорожка: английский
Режиссер: Джеймс Тобэк / James Toback
В ролях: Молли Рингуолд, Роберт Дауни мл., Деннис Хоппер, Дэнни Айелло, Милдред Даннок, Харви Кейтель, Брайан Хэмилл, Тамара Бруно, Ванесса Уильямс, Энджи Кемф
Описание: Учитель начальной школы Джек Джерико обожал знакомиться с представительницами прекрасной половины человечества и весело проводить время, считая себя большим «специалистом по съему» девушек. Обычно все заканчивалось хорошо.
Но неожиданная встреча с юной Ренди круто изменила его жизнь. Джек даже не подозревал, что влюбится в дочь игрока-алкоголика Флэша Дженсена, задолжавшего деньги бандиту, и впереди его ждут очень большие неприятности…
Кинопоиск|Imdb|Сэмпл
Тип релиза: BDRip 1080p
Контейнер: MKV
Видео: MPEG4 Video (H264) 1920x1038 (246:133) 23.976fps 17.6 Mbps
Аудио: Русский AC-3 / 2 ch / 48.0 KHz / 192 Kbps / Антон Алексеев
Аудио 2: Русский AC-3 / 6 ch / 48.0 KHz / 384 Kbps / Сергей Визгунов
Аудио 3: Английский AC-3 / 6 ch / 48.0 KHz / 640 Kbps
Формат субтитров: softsub (SRT)

MediaInfo

General
Unique ID : 254607618287419267302303253317799304339 (0xBF8BA4C3D066EBAAB8A357E2F03ADC93)
Complete name : C:\Users\Вика\Desktop\The.Pick-up.Artist.1987.BDRip.1080p.x264.mkv
Format : Matroska
Format version : Version 4 / Version 2
File size : 10.7 GiB
Duration : 1h 21mn
Overall bit rate : 18.8 Mbps
Encoded date : UTC 2014-10-14 09:18:23
Writing application : mkvmerge v6.9.1 ('Blue Panther') 64bit built on Apr 18 2014 18:23:38
Writing library : libebml v1.3.0 + libmatroska v1.4.1
Video
ID : 1
Format : AVC
Format/Info : Advanced Video Codec
Format profile : High@L4.1
Format settings, CABAC : Yes
Format settings, ReFrames : 4 frames
Codec ID : V_MPEG4/ISO/AVC
Duration : 1h 21mn
Bit rate : 17.6 Mbps
Width : 1 920 pixels
Height : 1 038 pixels
Display aspect ratio : 1.85:1
Frame rate mode : Constant
Frame rate : 23.976 fps
Color space : YUV
Chroma subsampling : 4:2:0
Bit depth : 8 bits
Scan type : Progressive
Bits/(Pixel*Frame) : 0.368
Stream size : 9.80 GiB (92%)
Title : MPEG-4AVC@High Profile L4.1, 24/1.001 fps @ 17600 kbps
Writing library : x264 core 132 r2310 76a5c3a
Encoding settings : cabac=1 / ref=4 / deblock=1:-3:-3 / analyse=0x3:0x133 / me=umh / subme=11 / psy=1 / psy_rd=1.00:0.00 / mixed_ref=1 / me_range=32 / chroma_me=1 / trellis=2 / 8x8dct=1 / cqm=0 / deadzone=21,11 / fast_pskip=0 / chroma_qp_offset=-2 / threads=24 / lookahead_threads=2 / sliced_threads=0 / nr=0 / decimate=0 / interlaced=0 / bluray_compat=0 / constrained_intra=0 / bframes=6 / b_pyramid=2 / b_adapt=2 / b_bias=0 / direct=3 / weightb=1 / open_gop=0 / weightp=2 / keyint=240 / keyint_min=23 / scenecut=40 / intra_refresh=0 / rc_lookahead=60 / rc=2pass / mbtree=1 / bitrate=17600 / ratetol=1.0 / qcomp=0.60 / qpmin=0 / qpmax=69 / qpstep=4 / cplxblur=20.0 / qblur=0.5 / vbv_maxrate=45000 / vbv_bufsize=45000 / nal_hrd=none / ip_ratio=1.40 / aq=1:0.60
Language : English
Default : Yes
Forced : No
Audio #1
ID : 2
Format : AC-3
Format/Info : Audio Coding 3
Mode extension : CM (complete main)
Format settings, Endianness : Big
Codec ID : A_AC3
Duration : 1h 21mn
Bit rate mode : Constant
Bit rate : 192 Kbps
Channel count : 2 channels
Channel positions : Front: L R
Sampling rate : 48.0 KHz
Bit depth : 16 bits
Compression mode : Lossy
Stream size : 112 MiB (1%)
Title : AVO А. Алексеев
Language : Russian
Default : Yes
Forced : No
Audio #2
ID : 3
Format : AC-3
Format/Info : Audio Coding 3
Mode extension : CM (complete main)
Format settings, Endianness : Big
Codec ID : A_AC3
Duration : 1h 21mn
Bit rate mode : Constant
Bit rate : 384 Kbps
Channel count : 6 channels
Channel positions : Front: L C R, Side: L R, LFE
Sampling rate : 48.0 KHz
Bit depth : 16 bits
Compression mode : Lossy
Stream size : 224 MiB (2%)
Title : AVO С. Визгунов
Language : Russian
Default : No
Forced : No
Audio #3
ID : 4
Format : AC-3
Format/Info : Audio Coding 3
Mode extension : CM (complete main)
Format settings, Endianness : Big
Codec ID : A_AC3
Duration : 1h 21mn
Bit rate mode : Constant
Bit rate : 640 Kbps
Channel count : 6 channels
Channel positions : Front: L C R, Side: L R, LFE
Sampling rate : 48.0 KHz
Bit depth : 16 bits
Compression mode : Lossy
Stream size : 373 MiB (3%)
Title : English Dolby Digital Audio 5.1 @ 640 kbps
Language : English
Default : No
Forced : No
Text #1
ID : 5
Format : UTF-8
Codec ID : S_TEXT/UTF8
Codec ID/Info : UTF-8 Plain Text
Language : Russian
Default : No
Forced : No
Text #2
ID : 6
Format : UTF-8
Codec ID : S_TEXT/UTF8
Codec ID/Info : UTF-8 Plain Text
Language : English
Default : No
Forced : No
Menu
00:00:00.000 : en:00:00:00.000
00:09:54.594 : en:00:09:54.594
00:20:58.257 : en:00:20:58.257
00:30:21.445 : en:00:30:21.445
00:38:55.333 : en:00:38:55.333
00:50:07.630 : en:00:50:07.630
00:59:37.407 : en:00:59:37.407
01:10:25.680 : en:01:10:25.680
01:17:27.476 : en:01:17:27.476

Скриншоты


_________________
Показать сообщения:    

Текущее время: Сегодня 05:19

Часовой пояс: GMT



Вы не можете начинать темы
Вы не можете отвечать на сообщения
Вы не можете редактировать свои сообщения
Вы не можете удалять свои сообщения
Вы не можете голосовать в опросах
Вы не можете прикреплять файлы к сообщениям
Вы не можете скачивать файлы