Важное объявление!
У Нас Все раздачи мультитрекерные, при нуле пиров в релизах, можете смело вставать на закачку!
 
Автор Сообщение

HUNTER

Стаж:
4 года 4 месяца
Сообщений:
56719

Репутация: 101

[+] [-]
Вне форума [Профиль] [ЛС]

Спасибо за обмен / Thanks for Sharing

-
-Страна: США
Студия: Class 5 Films, Olympus Pictures
Жанр: комедия, драма
Год выпуска: 2012
Продолжительность: 01:52:40--Перевод: Профессиональный (многоголосый закадровый) R5
Cубтитры: английские (full, SDH)
Оригинальная аудиодорожка: английский--Режиссер: Стюарт Блумберг / Stuart Blumberg
В ролях: Марк Руффало, Тим Роббинс, Гвинет Пэлтроу, Джош Гад, Джоэли Ричардсон, Патрик Фьюджит, Кэрол Кейн, Пинк, Михаэлла Уоткинс, Эмили Миде--Описание: Три сексоголика решили бороться с пагубной зависимостью. С этой целью они отправляются в специальную клинику, где в рамках лечения должны пройти 12 этапов реабилитационного процесса. Дело это, как оказывается, непростое, но чего не сделаешь ради того, чтобы оправиться от сексуальной зависимости и наладить конструктивные отношения с окружающими, пожалуй, в первый раз в жизни…--imdb | kinopoisk | Сэмпл--Тип релиза: BDRip 1080p [Thanks for Sharing 2012 1080p BluRay DTS x264-SbR]
Контейнер: MKV
Видео: MPEG-4 AVC / 20,0 Mbps / 1920x1080 / 23,976 fps / 16:9 / High Profile 4.1
Аудио 1: Russian AC3 / 5.1 / 48 kHz / 384 kbps / 16 bits |MVO, R5|
Аудио 2: English DTS / 5.1 / 48 kHz / 1509 kbps / 24 bits |original|
Формат субтитров: softsub [SRT]

MediaInfo

Код:
Общее
Уникальный идентификатор                 : 243681686808431575031920459120930110211 (0xB75362C0A9E97941BEB207B1B2CABB03)
Полное имя                               : G:\HD\Спасибо за обмен.2012.BDRip.(1080p).mkv
Формат                                   : Matroska
Версия формата                           : Version 4 / Version 2
Размер файла                             : 17,6 Гбайт
Продолжительность                        : 1 ч. 52 м.
Общий поток                              : 22,3 Мбит/сек
Дата кодирования                         : UTC 2014-03-19 13:37:30
Программа кодирования                    : mkvmerge v6.8.0 ('Theme for Great Cities') 64bit built on Mar  2 2014 21:34:26
Библиотека кодирования                   : libebml v1.3.0 + libmatroska v1.4.1
Attachment                               : Yes
Видео
Идентификатор                            : 1
Формат                                   : AVC
Формат/Информация                        : Advanced Video Codec
Профиль формата                          : High@L4.1
Параметр CABAC формата                   : Да
Параметр ReFrames формата                : 4 кадра
Идентификатор кодека                     : V_MPEG4/ISO/AVC
Продолжительность                        : 1 ч. 52 м.
Битрейт                                  : 20,0 Мбит/сек
Ширина                                   : 1920 пикселей
Высота                                   : 1080 пикселей
Соотношение сторон                       : 16:9
Режим частоты кадров                     : Постоянный
Частота кадров                           : 23,976 кадра/сек
Цветовое пространство                    : YUV
Субдискретизация насыщенности            : 4:2:0
Битовая глубина                          : 8 бит
Тип развёртки                            : Прогрессивная
Бит/(Пиксели*Кадры)                      : 0.402
Размер потока                            : 15,7 Гбайт (90%)
Заголовок                                : Thanks for Sharing 2012 1080p BluRay DTS x264-SbR
Библиотека кодирования                   : x264 core 140 r2377+40 929f149 tMod [8-bit@4:2:0 X86_64]
Настройки программы                      : cabac=1 / ref=4 / deblock=1:-2:-2 / analyse=0x3:0x113 / me=umh / subme=11 / psy=1 / fade_compensate=0.00 / psy_rd=1.00:0.00 / mixed_ref=1 / me_range=48 / chroma_me=1 / trellis=2 / 8x8dct=1 / cqm=0 / deadzone=21,11 / fast_pskip=1 / chroma_qp_offset=-2 / threads=12 / lookahead_threads=2 / sliced_threads=0 / nr=0 / decimate=1 / interlaced=0 / bluray_compat=0 / constrained_intra=0 / fgo=0 / bframes=8 / b_pyramid=2 / b_adapt=2 / b_bias=0 / direct=3 / weightb=1 / open_gop=0 / weightp=2 / keyint=250 / keyint_min=23 / scenecut=40 / intra_refresh=0 / rc_lookahead=60 / rc=crf / mbtree=0 / crf=19.0000 / qcomp=0.70 / qpmin=0:0:0 / qpmax=69:69:69 / qpstep=4 / vbv_maxrate=62500 / vbv_bufsize=78125 / crf_max=0.0 / nal_hrd=none / filler=0 / ip_ratio=1.40 / pb_ratio=1.30 / aq=4:0.80 / aq-sensitivity=11.00 / aq-factor=1.00:1.00:1.00 / aq2=1:0.60 / aq2-sensitivity=9.00 / aq2-factor=1.00:1.00:1.00 / aq3=1:[0.60:0.60]:[0.60:0.60]:[0.60:0.60]:[0.60:0.60] / aq3-sensitivity=10.00 / aq3-factor=[1.00:1.00]:[1.00:1.00]:[1.00:1.00] / aq3-boundary=192:64:24
Язык                                     : English
Default                                  : Да
Forced                                   : Нет
Основные цвета                           : BT.709
Характеристики трансфера                 : BT.709
Коэффициенты матрицы                     : BT.709
Аудио #1
Идентификатор                            : 2
Формат                                   : AC-3
Формат/Информация                        : Audio Coding 3
Расширение режима                        : CM (complete main)
Параметр Endianness формата              : Big
Идентификатор кодека                     : A_AC3
Продолжительность                        : 1 ч. 52 м.
Вид битрейта                             : Постоянный
Битрейт                                  : 384 Кбит/сек
Каналы                                   : 6 каналов
Расположение каналов                     : Front: L C R, Side: L R, LFE
Частота                                  : 48,0 КГц
Битовая глубина                          : 16 бит
Метод сжатия                             : С потерями
Размер потока                            : 309 Мбайт (2%)
Заголовок                                : MVO, R5
Язык                                     : Russian
Default                                  : Да
Forced                                   : Нет
Аудио #2
Идентификатор                            : 3
Формат                                   : DTS
Формат/Информация                        : Digital Theater Systems
Режим                                    : 16
Параметр Endianness формата              : Big
Идентификатор кодека                     : A_DTS
Продолжительность                        : 1 ч. 52 м.
Вид битрейта                             : Постоянный
Битрейт                                  : 1509 Кбит/сек
Каналы                                   : 6 каналов
Расположение каналов                     : Front: L C R, Side: L R, LFE
Частота                                  : 48,0 КГц
Битовая глубина                          : 24 бит
Метод сжатия                             : С потерями
Размер потока                            : 1,19 Гбайт (7%)
Язык                                     : English
Default                                  : Нет
Forced                                   : Нет
Текст #1
Идентификатор                            : 4
Формат                                   : UTF-8
Идентификатор кодека                     : S_TEXT/UTF8
Идентификатор кодека/Информация          : UTF-8 Plain Text
Заголовок                                : full
Язык                                     : English
Default                                  : Нет
Forced                                   : Нет
Текст #2
Идентификатор                            : 5
Формат                                   : UTF-8
Идентификатор кодека                     : S_TEXT/UTF8
Идентификатор кодека/Информация          : UTF-8 Plain Text
Заголовок                                : SDH
Язык                                     : English
Default                                  : Нет
Forced                                   : Нет
Меню
00:00:00.000                             : :Chapter 01
00:06:33.184                             : :Chapter 02
00:13:25.179                             : :Chapter 03
00:20:34.858                             : :Chapter 04
00:26:10.902                             : :Chapter 05
00:32:39.040                             : :Chapter 06
00:40:52.199                             : :Chapter 07
00:46:01.425                             : :Chapter 08
00:51:49.981                             : :Chapter 09
01:00:08.396                             : :Chapter 10
01:07:12.111                             : :Chapter 11
01:13:02.753                             : :Chapter 12
01:20:40.460                             : :Chapter 13
01:26:54.626                             : :Chapter 14
01:32:51.357                             : :Chapter 15
01:46:46.691                             : :Chapter 16

Скриншоты


Дополнительно

Цитата:

За русскую дорогу спасибо New Team

Thanks for Sharing 2012 1080p BluRay DTS x264-SbR

Код:
Release info
RELEASE NAME..: Thanks.for.Sharing.2012.1080p.BluRay.DTS.x264-SbR
RELEASE SIZE..: 17.2 GiB
RUNTIME.......: 01:52:40
VIDEO CODEC...: x264, crf, L4.1
FRAMERATE.....: 23.976 fps
BITRATE.......: 20427 kbps
RESOLUTION....: 1920x1080
AUDIO.........: English DTS 5.1 @ 1509 kbps
SUBTITLES.....: English, English (SDH), Spanish
CHAPTER.......: Included
SOURCE........: Thanks for Sharing 2013 BluRay 1080p AVC DTS-HD MA5.1
RELEASE DATE..: 03.01.2014
ENCODER.......: Skazhutin
x264 log
x264 [info]: frame I:1185  Avg QP:16.88  size:340089
x264 [info]: frame P:31684 Avg QP:17.68  size:209681
x264 [info]: frame B:129203 Avg QP:19.99  size: 79057
x264 [info]: consecutive B-frames:  1.6%  2.8%  5.9%  5.1%  4.0% 76.6%  1.8%  0.3%  2.0%
x264 [info]: kb/s:20427.95
Source vs Encode



_________________
Показать сообщения:    

Текущее время: Сегодня 02:23

Часовой пояс: GMT



Вы не можете начинать темы
Вы не можете отвечать на сообщения
Вы не можете редактировать свои сообщения
Вы не можете удалять свои сообщения
Вы не можете голосовать в опросах
Вы не можете прикреплять файлы к сообщениям
Вы не можете скачивать файлы