Важное объявление!
У Нас Все раздачи мультитрекерные, при нуле пиров в релизах, можете смело вставать на закачку!
 
Автор Сообщение

HUNTER

Стаж:
4 года 4 месяца
Сообщений:
56765

Репутация: 101

[+] [-]
Вне форума [Профиль] [ЛС]

Спасибо за обмен / Thanks for sharing
Страна: США
Студия: Class 5 Films, Olympus Pictures
Жанр: драма, комедия
Год выпуска: 2012
Продолжительность: 01:47:30
Перевод: Профессиональный (многоголосый закадровый)
Cубтитры: нет
Оригинальная аудиодорожка: нет
Режиссер: Стюарт Блумберг / Stuart Blumberg
В ролях: Марк Руффало (Adam), Тим Роббинс (Mike), Гвинет Пэлтроу (Phoebe), Джош Гад (Neil), Джоэли Ричардсон (Katie), Патрик Фьюджит (Danny), Кэрол Кейн (Roberta), Пинк (Dede), Эмили Миде (Becky), Исайя Уитлок мл. (Charles), Михаэлла Уоткинс (Margo)
Описание: Очень-очень нелегка жизнь у сексоголика.
В центре сюжета картины – несколько персонажей, страдающих сексоголизмом. Их свела общая напасть. И теперь, помогая друг другу, товарищи по несчастью пытаются одолеть пикантную хворь совместными усилиями. Но справиться со столь коварной зависимостью весьма непросто даже с посторонней помощью. Это борьба, где смех рождается сквозь слезы, где за триумфом следует поражение, где взлеты чередуются с падениями...
Удастся ли героям ступить на победную тропу и идти по ней до конца своей жизни?

Стюарт Итан Блумберг родился 19 июля 1969 года в США.
Он хотел стать адвокатом, и собирался поступать в Юридическую школу Гарвардского университета. Но в 1991 году окончил Йельский университет, получив там степень бакалавра по истории. А, в итоге, связал свою жизнь с кинематографом.
В киноиндустрию Стюарт пришел в двадцать пять лет. Начинал карьеру как актер и сценарист. Часто сотрудничал с Эдвардом Нортоном, с которым учился в Йеле и дружит еще со студенческих времен.
Звездный час Блумберга пробил в 2010 году, когда он (вместе с соавтором Лизой Холоденко) удостоился номинаций на премии «Оскар» и «Золотой глобус» за сочиненный сценарий к фильму «Детки в порядке». С тех пор коллеги, киноспециалисты и рядовая публика проявляют к новым творческим свершениям Стюарта повышенный интерес.
Картина «Спасибо за обмен» – режиссерский дебют Блумберга в большом кино. Каким он вышел – судить вам. Но в плюсах у ленты – замечательный актерский состав и очень необычная тематика. Можно даже сказать, оригинальная. Проблемы алкоголизма и наркомании затрагивались кинематографом уже не раз. И затрагивались весьма основательно. А вот экранную историю о сексоголиках, старающихся побороть свой щекотливый недуг, припомнить сложно.

Рейтинг R – Детям до 17 лет обязательно присутствие родителейДоп. информация:

R5 от «Парадиз»
Для подготовки релиза использовались программы:
AnyDVD 7.1.6.0 – снятие региональной защиты
Image Grabber II – изготовление скриншотов
DVD Shrink 3.2. 015 – изготовление сэмпла
DVDInfo
MediaInfo GUI 0.7.61--Уважаемые Братья и Сестры! Пожалуйста, не улетучивайтесь сразу с раздачи. Оставаясь в сидах, Вы поддерживаете наш на плаву, помогаете скачать фильм ближнему, и освобождаете автора для скорейшего оформления новых релизов.--
Бонусы: Скоро на DVD (рекламные ролики фильмов&мультфильмов)С Т Ю А Р Т
БЛУМБЕРГ
Меню: есть, на русском, статичное, озвученное
Сэмпл:
Тип релиза: DVD5
Контейнер: DVD-Video
Видео: MPEG-2 Video; PAL 16:9 (720x576) VBR, Auto Letterboxed; 4785 Kbps; 25 fps
Аудио: Russian (Dolby AC3, 6 ch); 384 Kbps; CBR; 6 ch; 16 bit; 48 KHz

DVD&MediaInfo

DVDInfo
Title: Спасибо за обмен. DVD-5
Size: 4.27 Gb ( 4 480 644,00 KBytes ) - DVD-5
Enabled regions: 1, 2, 3, 4, 5, 6, 7, 8
Audio #1: AC3, 3/2 (L,C,R,SL,SR)+LFE ch, 384 kbps, Delay 0 mSec
VTS_01 :
Play Length: 01:47:30
Video: PAL 16:9 (720x576) VBR, Auto Letterboxed
Audio:
Russian (Dolby AC3, 6 ch)
VTS_02 :
Play Length: 00:08:21
Video: PAL 16:9 (720x576) VBR, Auto Letterboxed
Audio:
Not specified (Dolby AC3, 2 ch)
* Menus Information *
VIDEO_TS Menu
Video:
PAL 16:9 (720x576) VBR
Auto Pan&Scan
Audio:
Not specified (Dolby AC3, 2 ch)
Russian Language Unit :
Title Menu
VTS_01 Menu
Video:
PAL 16:9 (720x576) VBR
Auto Pan&Scan
Audio:
Not specified (Dolby AC3, 6 ch)
Russian Language Unit :
Root Menu
Chapter (PTT) Menu
VTS_02 Menu
Video:
NTSC 4:3 (720x480) VBR
Auto Pan&Scan, Auto Letterboxed
Russian Language Unit :
Root Menu
MediaInfo
Общее
Полное имя: D:\Movie\Спасибо за обмен. DVD-5\VIDEO_TS\VTS_01_3.VOB
Формат: MPEG-PS
Размер файла: 1024 Мбайт
Продолжительность: 27 м.
Режим общего битрейта: Переменный
Общий поток: 5274 Кбит/сек
Видео
Идентификатор: 224 (0xE0)
Формат: MPEG Video
Версия формата: Version 2
Профиль формата: Main@Main
Параметр BVOP формата: Да
Параметр матрицы формата: Выборочная
Параметр GOP формата: Variable
Продолжительность: 27 м.
Вид битрейта: Переменный
Битрейт: 4785 Кбит/сек
Максимальный битрейт: 9000 Кбит/сек
Ширина: 720 пикселей
Высота: 576 пикселей
Соотношение сторон: 16:9
Частота кадров: 25,000 кадров/сек
Стандарт вещания: PAL
Цветовое пространство: YUV
Субдискретизация насыщенности: 4:2:0
Битовая глубина: 8 бит
Тип развёртки: Прогрессивная
Порядок развёртки: Верхнее поле первое
Метод сжатия: С потерями
Бит/(Пиксели*Кадры): 0.462
Размер потока: 929 Мбайт (91%)
Аудио
Идентификатор: 189 (0xBD)-128 (0x80)
Формат: AC-3
Формат/Информация: Audio Coding 3
Расширение режима: CM (complete main)
Параметр Endianness формата: Big
Режим смешивания: DVD-Video
Продолжительность: 27 м.
Вид битрейта: Постоянный
Битрейт: 384 Кбит/сек
Каналы: 6 каналов
Расположение каналов: Front: L C R, Side: L R, LFE
Частота: 48,0 КГц
Битовая глубина: 16 бит
Метод сжатия: С потерями
Задержка видео: -464 мс.
Размер потока: 74,6 Мбайт (7%)
Меню

Скриншоты меню

Скриншоты фильма

Скриншоты доп. материалов


_________________
Показать сообщения:    

Текущее время: Сегодня 03:51

Часовой пояс: GMT



Вы не можете начинать темы
Вы не можете отвечать на сообщения
Вы не можете редактировать свои сообщения
Вы не можете удалять свои сообщения
Вы не можете голосовать в опросах
Вы не можете прикреплять файлы к сообщениям
Вы не можете скачивать файлы