Важное объявление!
У Нас Все раздачи мультитрекерные, при нуле пиров в релизах, можете смело вставать на закачку!
 
Автор Сообщение

HUNTER

Стаж:
4 года 4 месяца
Сообщений:
56755

Репутация: 101

[+] [-]
Вне форума [Профиль] [ЛС]

Спасатели / Saving Goola
Страна: Китай
Жанр: Мультипликация
Продолжительность: 01:20:39
Год выпуска: 2014
Перевод: Профессиональный (дублированный) [iTunes]
Русские субтитры: нет-Режиссёр: Карл Тордж / Karl Toerge
Описание: Невероятной красоты тропический остров Гула находится в опасности: механизм, который держит остров парящим в воздухе сломан, и Гула вот-вот уйдет под воду! Харизматичным и обаятельным, но далеким от подвигов героям волей-неволей придется спасать свой остров и всех его жителей. Ироничные, веселые и безбашенные персонажи проявят настоящие чудеса храбрости, сплотившись перед лицом смертельной опасности и проявив свои лучшие качества: отчаянность, неутомимость и готовность помочь друг другу. Какие трудности им придется преодолеть и какой выход они найдут из непростой ситуации?-Качество: WEB-DL 1080p
Формат: MKV
Видео: AVC, 1920x1080 (16:9), 24.000 fps, 5 008 Kbps (0.101 bit/pixel)
Аудио: AC-3, 48.0 KHz, 6 ch, 384 Kbps, CBR (Russian) [iTunes]
Субтитры: отсутствуют
Семпл: Забираем тут

Подробные технические данные

GeneralUnique ID : 183942970019063515787287880538650112031 (0x8A62209D699829E6908020FFE748F01F)Complete name : Saving Goola 2014 WEB-DL 1080p.mkvFormat : MatroskaFormat version : Version 4 / Version 2File size : 3.10 GiBDuration : 1h 20mnOverall bit rate : 5 502 KbpsEncoded date : UTC 2015-09-10 18:53:53Writing application : mkvmerge v6.9.1 ('Blue Panther') 64bit built on Apr 18 2014 18:23:38Writing library : libebml v1.3.0 + libmatroska v1.4.1
VideoID : 1Format : AVCFormat/Info : Advanced Video CodecFormat profile : High@L4Format settings, CABAC : YesFormat settings, ReFrames : 4 framesCodec ID : V_MPEG4/ISO/AVCDuration : 1h 20mnBit rate : 5 008 KbpsWidth : 1 920 pixelsHeight : 1 080 pixelsDisplay aspect ratio : 16:9Frame rate mode : ConstantFrame rate : 24.000 fpsColor space : YUVChroma subsampling : 4:2:0Bit depth : 8 bitsScan type : ProgressiveBits/(Pixel*Frame) : 0.101Stream size : 2.82 GiB (91%)Language : EnglishDefault : YesForced : NoColor range : LimitedColor primaries : BT.709Transfer characteristics : BT.709Matrix coefficients : BT.709
AudioID : 2Format : AC-3Format/Info : Audio Coding 3Mode extension : CM (complete main)Format settings, Endianness : BigCodec ID : A_AC3Duration : 1h 20mnBit rate mode : ConstantBit rate : 384 KbpsChannel(s) : 6 channelsChannel positions : Front: L C R, Side: L R, LFESampling rate : 48.0 KHzCompression mode : LossyStream size : 222 MiB (7%)Language : RussianDefault : YesForced : No
Menu00:00:00.000 : en:Глава 100:05:51.000 : en:Глава 200:11:43.000 : en:Глава 300:17:11.000 : en:Глава 400:22:52.000 : en:Глава 500:28:12.000 : en:Глава 600:34:08.000 : en:Глава 700:40:47.000 : en:Глава 800:46:26.000 : en:Глава 900:51:53.000 : en:Глава 1000:57:21.000 : en:Глава 1101:02:27.000 : en:Глава 1201:07:48.000 : en:Глава 1301:12:21.000 : en:Глава 14

Скриншоты



_________________
Показать сообщения:    

Текущее время: Сегодня 13:10

Часовой пояс: GMT



Вы не можете начинать темы
Вы не можете отвечать на сообщения
Вы не можете редактировать свои сообщения
Вы не можете удалять свои сообщения
Вы не можете голосовать в опросах
Вы не можете прикреплять файлы к сообщениям
Вы не можете скачивать файлы