Важное объявление!
У Нас Все раздачи мультитрекерные, при нуле пиров в релизах, можете смело вставать на закачку!
 
Автор Сообщение

HUNTER

Стаж:
4 года 4 месяца
Сообщений:
56839

Репутация: 101

[+] [-]
Вне форума [Профиль] [ЛС]

Спасатели
IMAX - Rescue
-
Год выпуска: 2012
Страна: Канада
Жанр: Документальный
Продолжительность: 00:46:13
Перевод: Профессиональный (двухголосый закадровый) Blu-Ray
Русские субтитры: нет
+ Оригинальная аудиодорожка: Английский-Режиссер: Стивен Лоу / Stephen Low-Описание: Спасатели приглашают зрителей присоединиться к трудной, но благородной миссии — спасению людей, пострадавших от природных катаклизмов. Во время тренировок вы познакомитесь с командой спасателей — капитаном военного судна, двумя пилотами и техниками-волонтерами.-Сэмпл | kinopoisk | imdb-Качество: BDRip | исх. BDRip 720p
формат: AVI
Видео: 704x400 (16:9), 23,976 fps, XviD build 65, ~2001 kbps avg, 0.29 bit/pixel
Аудио# 1: 48.0 kHz, AC3 Dolby Digital, 3/2 (L,C,R,l,r) + LFE ch, ~384.00 kbps avg (RUS)
Аудио# 2: 48.0 kHz, AC3 Dolby Digital, 3/2 (L,C,R,l,r) + LFE ch, ~384.00 kbps avg (ENG)

MediaInfo

ОбщееПолное имя : A:\Фильмы\IMAX.Rescue.2012.aviФормат : AVIФормат/Информация : Audio Video InterleaveРазмер файла : 920 МбайтПродолжительность : 46 м.Общий поток : 2783 Кбит/секПрограмма кодирования : VirtualDubMod 1.5.10.2 (build 2540/release)Библиотека кодирования : VirtualDubMod build 2540/release
ВидеоИдентификатор : 0Формат : MPEG-4 VisualПрофиль формата : Advanced Simple@L5Параметр BVOP формата : 2Параметр QPel формата : НетПараметр GMC формата : Без точки переходаПараметр матрицы формата : Default (H.263)Идентификатор кодека : XVIDИдентификатор кодека/Подсказка : XviDПродолжительность : 46 м.Битрейт : 2001 Кбит/секШирина : 704 пикселяВысота : 400 пикселейСоотношение сторон : 16:9Частота кадров : 23,976 кадра/секЦветовое пространство : YUVСубдискретизация насыщенности : 4:2:0Битовая глубина : 8 битТип развёртки : ПрогрессивнаяМетод сжатия : С потерямиБит/(Пиксели*Кадры) : 0.296Размер потока : 662 Мбайт (72%)Библиотека кодирования : XviD 65
Аудио #1Идентификатор : 1Формат : AC-3Формат/Информация : Audio Coding 3Расширение режима : CM (complete main)Параметр Endianness формата : BigИдентификатор кодека : 2000Продолжительность : 46 м.Вид битрейта : ПостоянныйБитрейт : 384 Кбит/секКаналы : 6 каналовРасположение каналов : Front: L C R, Side: L R, LFEЧастота : 48,0 КГцБитовая глубина : 16 битМетод сжатия : С потерямиРазмер потока : 127 Мбайт (14%)Выравнивание : Разделение по промежуткамПродолжительность промежутка : 42 мс. (1,00 видеокадр)Время предзагрузки промежутка : 500 мс.
Аудио #2Идентификатор : 2Формат : AC-3Формат/Информация : Audio Coding 3Расширение режима : CM (complete main)Параметр Endianness формата : BigИдентификатор кодека : 2000Продолжительность : 46 м.Вид битрейта : ПостоянныйБитрейт : 384 Кбит/секКаналы : 6 каналовРасположение каналов : Front: L C R, Side: L R, LFEЧастота : 48,0 КГцБитовая глубина : 16 битМетод сжатия : С потерямиРазмер потока : 127 Мбайт (14%)Выравнивание : Разделение по промежуткамПродолжительность промежутка : 42 мс. (1,00 видеокадр)Время предзагрузки промежутка : 500 мс.

Скриншоты



_________________
Показать сообщения:    

Текущее время: Сегодня 04:27

Часовой пояс: GMT



Вы не можете начинать темы
Вы не можете отвечать на сообщения
Вы не можете редактировать свои сообщения
Вы не можете удалять свои сообщения
Вы не можете голосовать в опросах
Вы не можете прикреплять файлы к сообщениям
Вы не можете скачивать файлы