Важное объявление!
У Нас Все раздачи мультитрекерные, при нуле пиров в релизах, можете смело вставать на закачку!
 
Автор Сообщение

HUNTER

Стаж:
4 года 4 месяца
Сообщений:
56719

Репутация: 101

[+] [-]
Вне форума [Профиль] [ЛС]

Спартак: Месть / Spartacus: Vengeance-
Год выпуска: 2012
Страна: США
Жанр: боевик, драма, приключения, биография, история
Кол-во серий: 1-10 из 10
Продолжительность: ~57 мин--Перевод: Профессиональный (многоголосый, закадровый) от LostFilm
Субтитры: Русские (форсированные на расширенные места)--В ролях: Лиам МакИнтайр (Spartacus), Ману Беннетт (Crixus), Питер Менса (Doctore), Ник Тарабэй (Ashur), Вива Бьянка (Ilithyia), Катрина Ло (Mira), Крэйг Паркер (Glaber), Лесли-Энн Брандт (Naevia), Люси Лоулесс (Lucretia).
Режиссёр: Майкл Херст, Джесси Уарн, Рик Джейкобсон.--Описание: Вслед за кровавым побегом из дома Батиата, восстание гладиаторов начинает вселять страх в сердце Римской республики. Гай Клавдий Глабр и его римские войска направляются в Капую разбить, с каждым днём растущую группу освобожденных рабов, под предводительством лучшего римского гладиатора Спартака. Спартаку выпадает шанс отомстить человеку обрекшего его на рабство, а его жену на смерть. Вы увидите невероятную историю мести Спартака, всю кровь пролившуюся на римские земли во время восстания, самый страстный секс, подлость, предательства, героизм...--Качество: BDRip | Формат: AVI | Видео кодек: XviD | Аудио кодек: МР3
Видео: 624x352, ~950 Kbps, 23.976 fps
Аудио: 48.0 KHz, 2 ch, 128 Kbps
-

Mediainfo

Код: copyText_writeLink('this.parentNode.parentNode.nextSibling.nextSibling'); D:\Downloads\Spartacus Vengeance\Spartacus.Vengeance.S02E01.2012.BDRip.XviD.LostFilm.avi
General
Complete name : D:\Downloads\Spartacus Vengeance\Spartacus.Vengeance.S02E01.2012.BDRip.XviD.LostFilm.avi
Format : AVI
Format/Info : Audio Video Interleave
File size : 449 MiB
Duration : 57mn 34s
Overall bit rate : 1 090 Kbps
Writing application : VirtualDubMod 1.5.10.3 | www.virtualdub-fr.org || (build 2550/release)
Writing library : VirtualDubMod build 2550/release
Video #0
ID : 0
Format : MPEG-4 Visual
Format profile : Advanced Simple@L5
Format settings, BVOP : 1
Format settings, QPel : No
Format settings, GMC : No warppoints
Format settings, Matrix : Custom
Codec ID : XVID
Codec ID/Hint : XviD
Duration : 57mn 34s
Bit rate : 953 Kbps
Width : 624 pixels
Height : 352 pixels
Display aspect ratio : 16:9
Frame rate : 23.976 fps
Color space : YUV
Chroma subsampling : 4:2:0
Bit depth : 8 bits
Scan type : Progressive
Compression mode : Lossy
Bits/(Pixel*Frame) : 0.181
Stream size : 392 MiB (87%)
Writing library : XviD 65
Audio #1
ID : 1
Format : MPEG Audio
Format version : Version 1
Format profile : Layer 3
Mode : Joint stereo
Mode extension : MS Stereo
Codec ID : 55
Codec ID/Hint : MP3
Duration : 57mn 34s
Bit rate mode : Constant
Bit rate : 128 Kbps
Channel(s) : 2 channels
Sampling rate : 48.0 KHz
Compression mode : Lossy
Stream size : 52.7 MiB (12%)
Alignment : Aligned on interleaves
Interleave, duration : 42 ms (1.00 video frame)
Interleave, preload duration : 504 ms
Writing library : LAME3.99r
Encoding settings : -m j -V 4 -q 0 -lowpass 17 -b 128
-

Скриншоты


_________________
Показать сообщения:    

Текущее время: Сегодня 19:53

Часовой пояс: GMT



Вы не можете начинать темы
Вы не можете отвечать на сообщения
Вы не можете редактировать свои сообщения
Вы не можете удалять свои сообщения
Вы не можете голосовать в опросах
Вы не можете прикреплять файлы к сообщениям
Вы не можете скачивать файлы