Важное объявление!
У Нас Все раздачи мультитрекерные, при нуле пиров в релизах, можете смело вставать на закачку!
 
Автор Сообщение

HUNTER

Стаж:
4 года 4 месяца
Сообщений:
56719

Репутация: 101

[+] [-]
Вне форума [Профиль] [ЛС]

Союзкиножурнал
Год выпуска: 1941-1944
Страна: СССР
Жанр: документальный
Продолжительность: 55x00:07:00
Перевод: Не требуется
Режиссер: Я. Посельский, И. Сеткина, Р. Гиков, М. Фиделева
Описание: Сборник содержит выпуски хроникально-документальных фильмов времен Великой Отечественной войны.
Доп. информация: журналы идут от 5 до 20 минут
качество: VHSRip
формат: AVI
Видео: Xvid 576x432, 640x480 25fps 602-1735 Kbps
Аудио: MP3 48000Hz mono 64kbps, MP3 48000Hz stereo 128kbps

MediaInfo1

General
Complete name : C:\Documents and Settings\User\Мои документы\Союзкиножурнал\1941\1941 № 104.avi
Format : AVI
Format/Info : Audio Video Interleave
File size : 40.4 MiB
Duration : 8mn 18s
Overall bit rate : 679 Kbps
Writing application : Lavf52.39.1
Video
ID : 0
Format : xvid
Codec ID : xvid
Duration : 8mn 18s
Bit rate : 602 Kbps
Width : 576 pixels
Height : 432 pixels
Display aspect ratio : 4:3
Frame rate : 25.000 fps
Bits/(Pixel*Frame) : 0.097
Stream size : 35.8 MiB (89%)
Audio
ID : 1
Format : MPEG Audio
Format version : Version 1
Format profile : Layer 3
Codec ID : 55
Codec ID/Hint : MP3
Duration : 8mn 18s
Bit rate mode : Constant
Bit rate : 64.0 Kbps
Channel count : 1 channel
Sampling rate : 48.0 KHz
Compression mode : Lossy
Stream size : 3.81 MiB (9%)
Alignment : Aligned on interleaves
Interleave, duration : 24 ms (0.60 video frame)
Interleave, preload duration : 24 ms

MediaInfo2

General
Complete name : C:\Documents and Settings\User\Мои документы\Союзкиножурнал\1943\1943 № 43.avi
Format : AVI
Format/Info : Audio Video Interleave
File size : 158 MiB
Duration : 11mn 47s
Overall bit rate : 1 873 Kbps
Writing application : VirtualDubMod 1.5.10.2 (build 2540/release)
Writing library : VirtualDubMod build 2540/release
Video
ID : 0
Format : MPEG-4 Visual
Format profile : Advanced Simple@L5
Format settings, BVOP : 1
Format settings, QPel : No
Format settings, GMC : No warppoints
Format settings, Matrix : Default (H.263)
Codec ID : XVID
Codec ID/Hint : XviD
Duration : 11mn 47s
Bit rate : 1735 Kbps
Width : 640 pixels
Height : 480 pixels
Display aspect ratio : 4:3
Frame rate : 25.000 fps
Color space : YUV
Chroma subsampling : 4:2:0
Bit depth : 8 bits
Scan type : Progressive
Compression mode : Lossy
Bits/(Pixel*Frame) : 0.146
Stream size : 147 MiB (88%)
Writing library : XviD 1.2.1 (UTC 2008-12-04)
Audio
ID : 1
Format : MPEG Audio
Format version : Version 1
Format profile : Layer 3
Mode : Joint stereo
Mode extension : MS Stereo
Codec ID : 55
Codec ID/Hint : MP3
Duration : 11mn 47s
Bit rate mode : Constant
Bit rate : 128 Kbps
Channel count : 2 channels
Sampling rate : 48.0 KHz
Compression mode : Lossy
Delay relative to video : 8ms
Stream size : 11 MiB (7%)
Alignment : Split accross interleaves
Interleave, duration : 40 ms (1.00 video frame)
Interleave, preload duration : 500 ms

Скриншоты

Список серий


_________________
Показать сообщения:    

Текущее время: Сегодня 03:11

Часовой пояс: GMT



Вы не можете начинать темы
Вы не можете отвечать на сообщения
Вы не можете редактировать свои сообщения
Вы не можете удалять свои сообщения
Вы не можете голосовать в опросах
Вы не можете прикреплять файлы к сообщениям
Вы не можете скачивать файлы