Важное объявление!
У Нас Все раздачи мультитрекерные, при нуле пиров в релизах, можете смело вставать на закачку!
 
Автор Сообщение

HUNTER

Стаж:
4 года 4 месяца
Сообщений:
56733

Репутация: 101

[+] [-]
Вне форума [Профиль] [ЛС]

Соц и ум / серии 1-8 из 8
-Название: Соц и ум
Год выпуска: 2013-2014
Страна: Россия, Израиль
Производство: «Открытый телеканал»
Источник Web: www.opentv.tv
Жанр: телепередача
Продолжительность: 03:58:53
Перевод: оригинал (русский язык)
Субтитры: нет-В ролях: Александр Ангелов, Мария Шаёвич, Юрий Подольский, Ирина Дион, Лев Эппельбаум, Михаил Мойсеевич, Анатолий Кардаш (Аб Мише), Ципора Карпова, Даниэль Лемберг, Владэк Занковски, Юлия Чемеринская, Юрий Кац
Режиссёр: Семён Винокур-Описание: Социум. Его мудрость сегодня уже не вызывает сомнений. Выяснилось, что вместе социум решает проблемы гораздо быстрее и качественнее. И гости передачи «Соц и ум» говорят именно об этом. Являясь первоклассными специалистами в своих областях, они обнаружили прямую зависимость качества жизни от сплочённости и единства социума. Не единообразия и нивелирования, а взаимопонимания и поддержки друг друга. Это стоит посмотреть и послушать.-Качество: WEB-DLRip
Формат: MP4
Видеокодек: MPEG-4 AVC (H.264)
Аудиокодек: ACC
Видео: 1280 x 720, 25,000 fps, ~ 1 200 Kbps, ~ 0.050 bit/pixel
Аудио: 44,1 kHz, 2 ch, ~ 128 kb/s- Аудиоверсия телепередачи «Соц и ум» / выпуски 1-8 из 8

Скриншоты

MediaInfo


ОбщееПолное имя : teleprogramma.Soc_i_um.2013-2014.WEB-DLRip.Rus.Mp4\Соц_и_ум-Адвокат_и_закон.mp4Формат : MPEG-4Профиль формата : Base MediaИдентификатор кодека : isomРазмер файла : 233 МбайтПродолжительность : 24 м.Режим общего битрейта : ПеременныйОбщий поток : 1343 Кбит/сек
ВидеоИдентификатор : 1Формат : AVCФормат/Информация : Advanced Video CodecПрофиль формата : Baseline@L3.1Параметр CABAC формата : НетПараметр ReFrames формата : 1 кадрИдентификатор кодека : avc1Идентификатор кодека/Информация : Advanced Video CodingПродолжительность : 24 м.Битрейт : 1200 Кбит/секШирина : 1280 пикселейВысота : 720 пикселейСоотношение сторон : 16:9Режим частоты кадров : ПостоянныйЧастота кадров : 25,000 кадров/секЦветовое пространство : YUVСубдискретизация насыщенности : 4:2:0Битовая глубина : 8 битТип развёртки : ПрогрессивнаяБит/(Пиксели*Кадры) : 0.052Размер потока : 210 Мбайт (90%)Библиотека кодирования : x264 core 112
АудиоИдентификатор : 2Формат : AACФормат/Информация : Advanced Audio CodecПрофиль формата : LCИдентификатор кодека : 40Продолжительность : 24 м.Вид битрейта : ПеременныйБитрейт : 128 Кбит/секКаналы : 2 каналаРасположение каналов : Front: L RЧастота : 44,1 КГцМетод сжатия : С потерямиРазмер потока : 22,2 Мбайт (10%)

Список серий


01. Соц_и_ум-Адвокат_и_закон - (24:18)
02. Соц_и_ум-Антисемитизм.Почему - (36:31)
03. Соц_и_ум-Болезни.Их_не_существует - (30:07)
04. Соц_и_ум-Медицина,которая_лечит.Медицина_будущего - (30:56)
05. Соц_и_ум-Природные_катаклизмы - (29:35)
06. Соц_и_ум-Работа_мечты - (32:19)
07. Соц_и_ум-Секрет_Зоар - (21:25)
08. Соц_и_ум-Уникальный_Израиль - (33:38)

Внимание! Раздача ведётся путём добавления новых выпусков

Внимание! Раздача ведётся путём добавления новых выпусков; при каждом добавлении создаётся новый торрент. Чтобы начать докачку нового выпуска, пользователям необходимо сделать следующее:
(1) остановить скачивание,
(2) удалить старый торрент у себя из клиента (старые серии удалять не надо),
(3) скачать новый торрент и запустить его у себя в клиенте вместо старого, при этом указать клиенту путь в старую папку куда и должно происходить скачивание новых выпусков.
Ваш клиент при этом должен произвести хеширование (проверку) старой папки (если не производит сам - помогите ему сделать это). В результате он будет докачивать только те выпуски, которых у Вас ещё нет. Старые выпуски при этом не удаляются, а продолжают раздаваться!
Eсли Вы уже удалили старые выпуски, то предотвратить их повторную закачку можно, сняв галочки в соответствующих местах при запуске нового торрента. По возможности, желательно не удалять старые выпуски как можно дольше, чтобы релизёр не только продолжал раздавать старые выпуски, но и смог сконцентрироваться на новых.

Дополнительная информация

- О нас
Добро пожаловать!
Мы создали «Открытый телеканал» для того, чтобы способствовать позитивным переменам в жизни. Поэтому в наших передачах мы говорим практически о 3 вещах: что представляет собой окружающий нас сегодня мир, что представляем собой мы сами и что нам делать для того, чтобы прийти к гармонии – с самими собой и с сегодняшним глобальным миром.
Надеемся, что не разочаруем. Мы абсолютно убеждены, что позитивные перемены в обществе не произойдут по приказу “сверху”. Они возможны, только если их захочет само общество, то есть мы с вами. Стоит лишь 10% из нас прийти к согласию и оно неизбежно будет принято всем обществом, включая правительство.
Так что, наша судьба находится в наших же руках. Не будем её выпускать.
И ещё. Наш телеканал – некоммерческий проект. Он создан и функционирует исключительно благодаря волонтерам. Всё, что вы видите на нём, создано, как раньше выражались, в свободное от основной работы время.
Ну, и использование материалов сайта на других ресурсах разрешается без ограничения, но с обязательной гиперссылкой на «Открытый телеканал».
Искренне ваши, Общественное движение “Арвут”

_________________
Показать сообщения:    

Текущее время: Сегодня 04:22

Часовой пояс: GMT



Вы не можете начинать темы
Вы не можете отвечать на сообщения
Вы не можете редактировать свои сообщения
Вы не можете удалять свои сообщения
Вы не можете голосовать в опросах
Вы не можете прикреплять файлы к сообщениям
Вы не можете скачивать файлы