Важное объявление!
У Нас Все раздачи мультитрекерные, при нуле пиров в релизах, можете смело вставать на закачку!
 
Автор Сообщение

HUNTER

Стаж:
4 года 4 месяца
Сообщений:
56734

Репутация: 101

[+] [-]
Вне форума [Профиль] [ЛС]

Сохраняя веруKeeping the Faith«If you have to believe in something, you might as well believe in love»-
Страна: США
Жанр: драма, мелодрама, комедия
Год выпуска: 2000
Продолжительность: 02:09:18
Перевод: Профессиональный (многоголосый закадровый)
Cубтитры: русские, английские SDH
Оригинальная аудиодорожка: английский
Режиссер: Эдвард Нортон / Edward Norton
В ролях: Бен Стиллер, Эдвард Нортон, Дженна Элфмэн, Энн Бэнкрофт, Эли Уоллах, Рон Рифкин, Милош Форман, Холланд Тейлор, Лиза Эдельштейн, Рена Софер
Описание: Брайан, Джейкоб и Анна дружили с детства. Брайан стал католическим священником, Джейкоб — раввином, а Анна — деловой женщиной. Джейкобу как раввину необходимо жениться на еврейке. Когда он через несколько лет встретился с Анной, вспыхнула любовь.
Брайан тем временем тоже влюбился в Анну. Но Брайан и Джейк служат Богу, и у обоих нет никакой надежды: вероисповедание не позволяет ни одному из них быть вместе с прекрасной Анной. Однако какой бы крепкой ни была вера, ей очень трудно устоять перед искушением любовью…

MPAA: PG-13 - Детям до 13 лет просмотр не желателен-Сэмпл: http://multi-up.com/958241
Релиз от:
Тип релиза: BDRip 720p [ BDRemux]
Контейнер: MKV
Видео: MPEG-4 AVC, 6950 Кбит/с, 1280x690, 23.976 кадр/с
Аудио №1: русский / AC3 / 2.0 / 48 kHz / 192 kbps / 16 bit |MVO|
Аудио №2: английский / DTS / 5.1 / 48 kHz / 1510 kbps / 24 bit
Навигация по главам: есть
Формат субтитров: softsub (SRT)

x264

x264 [info]: frame I:1316 Avg QP:14.98 size:117181
x264 [info]: frame P:33955 Avg QP:17.47 size: 58423
x264 [info]: frame B:150728 Avg QP:19.63 size: 30511
x264 [info]: consecutive B-frames: 1.6% 1.8% 4.4% 11.1% 13.8% 36.3% 8.6% 4.3% 3.8% 4.5% 2.6% 2.1% 2.5% 2.7%
x264 [info]: mb I I16..4: 2.8% 83.7% 13.5%
x264 [info]: mb P I16..4: 0.5% 17.4% 1.2% P16..4: 28.6% 35.2% 12.9% 0.0% 0.0% skip: 4.2%
x264 [info]: mb B I16..4: 0.0% 2.9% 0.1% B16..8: 38.2% 25.4% 4.9% direct:10.2% skip:18.2% L0:47.9% L1:37.3% BI:14.8%
x264 [info]: 8x8 transform intra:91.5% inter:56.9%
x264 [info]: direct mvs spatial:98.7% temporal:1.3%
x264 [info]: coded y,uvDC,uvAC intra: 94.9% 88.2% 61.5% inter: 46.4% 33.3% 7.9%
x264 [info]: i16 v,h,dc,p: 36% 21% 7% 36%
x264 [info]: i8 v,h,dc,ddl,ddr,vr,hd,vl,hu: 10% 8% 9% 10% 14% 13% 12% 12% 13%
x264 [info]: i4 v,h,dc,ddl,ddr,vr,hd,vl,hu: 24% 9% 8% 7% 12% 12% 10% 9% 9%
x264 [info]: i8c dc,h,v,p: 40% 23% 19% 18%
x264 [info]: Weighted P-Frames: Y:7.9% UV:3.5%
x264 [info]: ref P L0: 34.6% 7.1% 19.8% 9.2% 8.2% 5.9% 5.6% 3.3% 3.2% 2.7% 0.3% 0.0%
x264 [info]: ref B L0: 56.3% 16.3% 9.6% 5.5% 4.2% 3.5% 2.9% 1.2% 0.4%
x264 [info]: ref B L1: 87.6% 12.4%
x264 [info]: kb/s:6947.27

MediaInfo

Код:
Format                           : Matroska
Format version                   : Version 4 / Version 2
File size                        : 7.81 GiB
Duration                         : 2h 9mn
Overall bit rate                 : 8 643 Kbps
Movie name                       :  -=MediaClub - Odessit=-
Encoded date                     : UTC 2014-03-12 11:33:45
Writing application              : mkvmerge v6.8.0 ('Theme for Great Cities') 64bit built on Mar  2 2014 21:34:26
Writing library                  : libebml v1.3.0 + libmatroska v1.4.1
Video
ID                               : 1
Format                           : AVC
Format/Info                      : Advanced Video Codec
Format profile                   : High@L4.1
Format settings, CABAC           : Yes
Format settings, ReFrames        : 10 frames
Codec ID                         : V_MPEG4/ISO/AVC
Duration                         : 2h 9mn
Bit rate                         : 6 950 Kbps
Width                            : 1 280 pixels
Height                           : 690 pixels
Display aspect ratio             : 1.855
Frame rate                       : 23.976 fps
Color space                      : YUV
Chroma subsampling               : 4:2:0
Bit depth                        : 8 bits
Scan type                        : Progressive
Bits/(Pixel*Frame)               : 0.328
Stream size                      : 6.12 GiB (78%)
Writing library                  : x264 core 142 r2389+41 02cb608 tMod [8-bit@4:2:0 X86_64]
Encoding settings                : cabac=1 / ref=10 / deblock=1:-3:-3 / analyse=0x3:0x113 / me=umh / subme=11 / psy=1 / fade_compensate=0.00 / psy_rd=1.00:0.00 / mixed_ref=1 / me_range=48 / chroma_me=1 / trellis=2 / 8x8dct=1 / cqm=0 / deadzone=21,11 / fast_pskip=0 / chroma_qp_offset=-2 / threads=6 / lookahead_threads=1 / sliced_threads=0 / nr=0 / decimate=0 / interlaced=0 / bluray_compat=0 / constrained_intra=0 / fgo=0 / bframes=13 / b_pyramid=2 / b_adapt=2 / b_bias=0 / direct=3 / weightb=1 / open_gop=0 / weightp=2 / keyint=240 / keyint_min=23 / scenecut=40 / intra_refresh=0 / rc=2pass / mbtree=0 / bitrate=6950 / ratetol=1.0 / qcomp=0.60 / qpmin=0:0:0 / qpmax=69:69:69 / qpstep=4 / cplxblur=20.0 / qblur=0.5 / ip_ratio=1.40 / pb_ratio=1.30 / aq=2:0.80 / aq-sensitivity=10.00 / aq-factor=1.00:1.00:1.00 / aq2=0 / aq3=0
Language                         : English
Audio #1
ID                               : 2
Format                           : AC-3
Format/Info                      : Audio Coding 3
Mode extension                   : CM (complete main)
Codec ID                         : A_AC3
Duration                         : 2h 9mn
Bit rate mode                    : Constant
Bit rate                         : 192 Kbps
Channel(s)                       : 2 channels
Channel positions                : Front: L R
Sampling rate                    : 48.0 KHz
Bit depth                        : 16 bits
Compression mode                 : Lossy
Stream size                      : 178 MiB (2%)
Title                            : Профессиональный многоголосый
Language                         : Russian
Audio #2
ID                               : 3
Format                           : DTS
Format/Info                      : Digital Theater Systems
Codec ID                         : A_DTS
Duration                         : 2h 9mn
Bit rate mode                    : Constant
Bit rate                         : 1 510 Kbps
Channel(s)                       : 6 channels
Channel positions                : Front: L C R, Side: L R, LFE
Sampling rate                    : 48.0 KHz
Bit depth                        : 24 bits
Compression mode                 : Lossy
Stream size                      : 1.37 GiB (17%)
Language                         : English
Text #1
ID                               : 4
Format                           : UTF-8
Codec ID                         : S_TEXT/UTF8
Codec ID/Info                    : UTF-8 Plain Text
Language                         : Russian
Text #2
ID                               : 5
Format                           : UTF-8
Codec ID                         : S_TEXT/UTF8
Codec ID/Info                    : UTF-8 Plain Text
Language                         : English
Menu
00:00:00.000                     : :Chapter 01
00:03:05.852                     : :Chapter 02
00:05:50.224                     : :Chapter 03
00:10:38.262                     : :Chapter 04
00:14:30.578                     : :Chapter 05
00:14:57.521                     : :Chapter 06
00:18:51.004                     : :Chapter 07
00:22:49.910                     : :Chapter 08
00:27:14.215                     : :Chapter 09
00:31:15.832                     : :Chapter 10
00:36:34.942                     : :Chapter 11
00:39:20.691                     : :Chapter 12
00:43:24.602                     : :Chapter 13
00:51:15.280                     : :Chapter 14
00:58:41.768                     : :Chapter 15
01:02:22.405                     : :Chapter 16
01:04:27.196                     : :Chapter 17
01:06:34.573                     : :Chapter 18
01:09:46.974                     : :Chapter 19
01:13:33.158                     : :Chapter 20
01:21:19.791                     : :Chapter 21
01:28:04.988                     : :Chapter 22
01:32:06.395                     : :Chapter 23
01:35:44.655                     : :Chapter 24
01:38:06.130                     : :Chapter 25
01:41:07.186                     : :Chapter 26
01:45:20.480                     : :Chapter 27
01:48:16.990                     : :Chapter 28
01:53:05.028                     : :Chapter 29
01:55:44.312                     : :Chapter 30
02:00:03.404                     : :Chapter 31
02:02:57.870                     : :Chapter 32

Скриншоты


_________________
Показать сообщения:    

Текущее время: Сегодня 14:35

Часовой пояс: GMT



Вы не можете начинать темы
Вы не можете отвечать на сообщения
Вы не можете редактировать свои сообщения
Вы не можете удалять свои сообщения
Вы не можете голосовать в опросах
Вы не можете прикреплять файлы к сообщениям
Вы не можете скачивать файлы