Важное объявление!
У Нас Все раздачи мультитрекерные, при нуле пиров в релизах, можете смело вставать на закачку!
 
Автор Сообщение

HUNTER

Стаж:
4 года 4 месяца
Сообщений:
56790

Репутация: 101

[+] [-]
Вне форума [Профиль] [ЛС]

Сорвиголова Кик Бутовски
Kick Buttowski: Suburban Daredevil
Сезон: 2 / Серии: 1-32 из 32

-Год производства: 2011-2012
Страна: USA
Жанр: мультсериал
Продолжительность: ~00:22:00
Кол-во серий/сезонов: Сезон: 2 / Серии: 1-32 из 32
Перевод: Профессиональный (дублированный) Канал Disney
Субтитры: Отсутствуют-Режиссер: Крис Савино / Chris Savino, Шерм Коэн / Sherm Cohen-Описание: Кик Бутовски — очень необычный ребенок, живущий в самом обычном городе. Он — великий борец с обыденностью, который стремится сделать каждое мгновение своей жизни особенным. Твердо решив стать самым отчаянным каскадером в мире, Кик понимает, что ему необходимо преодолеть все жизненные обстоятельства на этом пути.-Качество видео: WEB-DLRip
Формат видео: avi
Видео кодек: XviD
Аудио кодек: AC3
Видео: 720x400 (1.80:1), 23.976 fps, XviD build 50 ~1648 kbps avg, 0.24 bit/pixel
Аудио#1: 48 kHz, AC3 Dolby Digital, 2/0 (L,R) ch, ~192 kbps
Аудио#2: 48 kHz, AC3 Dolby Digital, 2/0 (L,R) ch, ~192 kbps-

Список серий

2x01 - Стрижка денег / Любовь - это отстой! (Mow Money / Love Stinks!)
2x02 - Слишком чисто / Скоростная доставка (Clean ... to the Extreme / Stand and Delivery)
2x03 - Переключаюсь / Запрет На Гараж (Switching Gears / Garage Banned)
2x04 - Клёвые Гены / Покупка Одежды (Kickin' Genes / Clothes Call)
2x05 - В Бассейне / Сосед Уэйд (Pooldaze / Live in Wade)
2x06 - Продано! / Вниз лицом! (Sold! / Faceplant!)
2x07 - Правда или Сорвиголова ( Truth or Daredevil)
2x08 - Опять Загнан / Новое Лицо (Stumped Again / The Kick Stays in the Picture)
2x09 - Рука В Руке / Луиджи Вендетта (Hand in Hand / Luigi Vendetta)
2x10 - Кик Или Жизнь / Аттракцион Мертвеца (Kick or Treat / Dead Man's Roller Coaster)
2x11 - Гонки На Картах / К2 Кайл 2.0 (Kart to Kart / K2 Kyle 2.0)
2x12 - Одурачен Брэдом! / Ночёвка (You've Been BRAD'd! / Sleepover)
2x13 - Щеголь Из Спортзала / Наказанный (Gym Dandy / Detained)
2x14 - Комната Брэда / Друг, где мой Уэйд? (Brad's Room / Dude, Where's My Wade?)
2x15 - Соглашение С Сестрой / Тcc! (Sister Pact / Shh!)
2x16 - Собачья Жизнь / Братская Любовь (K-Nein / Bromance)
2x17 - Рождество с Кузеном Кайлом / Снежная Проблема (A Cousin Kyle Christmas / Snow Problem)
2x18 - Чердак / Свободу Гюнтеру (Attic-a / Free Gunther)
2x19 - Дикая Сонная Река / Жёсткая Игра (Sleepy River Wild / Power Play)
2x20 - Голосование / Лагерь Джока Уайлдера На Природе (Poll Position / Jock Wilder's Nature Camp)
2x21 - Блошиный Рынок / Крутописание (Swap Meet / Bee Awesome!)
2x22 - Сказание о Мусоре / Железные Нервы (Trash Talk / Nerves of Steal)
2x23 - Прощай Убежище / Плохая Карма (Goodbye, Gully / Bad Car-ma)
2x24 - Война и Мир (Bwar and Peace)
2x25 - Дурные Манеры За Столом / Окаменелый! (Bad Table Manners / Petrified!)
2x26 - Скажи "Сыр" / Сиделка Для Братьев (Say Cheese / Pinch Sitter)
2x27 - Дневник Брэда / Цена Розыгрыша (Brad's Diary / Sew What)
2x28 - Большой Рот / Последний Фанат (Big Mouth / Last Fan Standing)
2x29 - Крошки / Хладнокровие (Crumbs! / Stay Cool)
2x30 - Только в Долг / Новое Напровление (Only the Loan-ly / Roll Reversal)
2x31 - Кодекс Головорезов / Бвар-Март (Meathead Justice / Bwar-Mart)
2x32 - Кайл И. Койот / Запертый Снаружи / Победа (Kyle E. Coyote / Locked Out / Rocked)

Доп. информация

Скриншоты

MediaInfo

Код: copyText_writeLink('this.parentNode.parentNode.nextSibling.nextSibling');
General
Complete name : D:\Торенты\Kick Buttowski s02 WEB-DLRip\Kick Buttowski.2x08.WEB-DLRip.Rus.Eng.avi
Format : AVI
Format/Info : Audio Video Interleave
File size : 332 MiB
Duration : 22mn 8s
Overall bit rate : 2 097 Kbps
Writing application : VirtualDubModRus 1.5.10.2 (build 2542/release)
Writing library : VirtualDubMod build 2542/release
Video
ID : 0
Format : MPEG-4 Visual
Format profile : Advanced Simple@L5
Format settings, BVOP : 2
Format settings, QPel : No
Format settings, GMC : No warppoints
Format settings, Matrix : Default (H.263)
Codec ID : XVID
Codec ID/Hint : XviD
Duration : 22mn 7s
Bit rate : 1 699 Kbps
Width : 720 pixels
Height : 400 pixels
Display aspect ratio : 16:9
Frame rate : 23.976 fps
Color space : YUV
Chroma subsampling : 4:2:0
Bit depth : 8 bits
Scan type : Progressive
Compression mode : Lossy
Bits/(Pixel*Frame) : 0.246
Stream size : 269 MiB (81%)
Writing library : XviD 1.2.1 (UTC 2008-12-04)
Audio #1
ID : 1
Format : AC-3
Format/Info : Audio Coding 3
Mode extension : CM (complete main)
Format settings, Endianness : Big
Codec ID : 2000
Duration : 22mn 7s
Bit rate mode : Constant
Bit rate : 192 Kbps
Channel(s) : 2 channels
Channel positions : Front: L R
Sampling rate : 48.0 KHz
Bit depth : 16 bits
Compression mode : Lossy
Stream size : 30.4 MiB (9%)
Alignment : Split accross interleaves
Interleave, duration : 42 ms (1.00 video frame)
Interleave, preload duration : 500 ms
Audio #2
ID : 2
Format : AC-3
Format/Info : Audio Coding 3
Mode extension : CM (complete main)
Format settings, Endianness : Big
Codec ID : 2000
Duration : 22mn 8s
Bit rate mode : Constant
Bit rate : 192 Kbps
Channel(s) : 2 channels
Channel positions : Front: L R
Sampling rate : 48.0 KHz
Bit depth : 16 bits
Compression mode : Lossy
Stream size : 30.4 MiB (9%)
Alignment : Aligned on interleaves
Interleave, duration : 42 ms (1.00 video frame)
Interleave, preload duration : 512 ms

Внимание! Раздача ведётся путём добавления новых серий

Внимание! Раздача ведётся путём добавления новых серий; при каждом добавлении создётся новый торрент. Чтобы начать докачку новой серии, пользователям необходимо сделать следующее:
(1) остановить скачивание,
(2) удалить старый торрент у себя из клиента (старые серии удалять не надо),
(3) скачать новый торрент и запустить его у себя в клиенте вместо старого, при этом указать клиенту путь в старую папку куда и должно происходить скачивание новых серий.
Ваш клиент при этом должен произвести хеширование (проверку) старой папки (если не производит сам - помогите ему сделать это), и будет докачивать только те серии которых у вас ещё нет. Старые серии при этом не удаляются, а продолжают раздаваться!
Eсли вы уже удалили старые серии, то предотвратить повторную закачку старых серий можно, отжав галочку в соответсвующих местах при запуске нового торрента. По возможности, желательно не удалять старые серии как можно дольше, чтобы релизёр не столько продолжал раздавать старые серии, а смог сконцентрироваться на новых.

_________________
Показать сообщения:    

Текущее время: Сегодня 15:34

Часовой пояс: GMT



Вы не можете начинать темы
Вы не можете отвечать на сообщения
Вы не можете редактировать свои сообщения
Вы не можете удалять свои сообщения
Вы не можете голосовать в опросах
Вы не можете прикреплять файлы к сообщениям
Вы не можете скачивать файлы