Важное объявление!
У Нас Все раздачи мультитрекерные, при нуле пиров в релизах, можете смело вставать на закачку!
 
Автор Сообщение

HUNTER

Стаж:
4 года 4 месяца
Сообщений:
56829

Репутация: 101

[+] [-]
Вне форума [Профиль] [ЛС]

-Год выпуска: 2013
Страна: Япония
Жанр: Фантастика
Продолжительность: 24 эп. по 25 мин.-Перевод: Русские субтитры от: LeDi-MaHo Team Переводчик: MantisFL, редакторы/оформление: Holydarkness, Raikiri-Режиссер: Ямамото Хидэё
Автор оригинала:
Микумо Гакуто
Студия: Silver Link-Описание: Человечество заключило с демоническими силами нерушимый мирный договор, который от имени нечисти и нежити заверили три Истинных Предка, высшие князья вампиров. Только мало кто знает, что существует и Четвертый Предок, сильнейший вампир в истории, и уж совсем узкому кругу известно, что она, то ли по воле судьбы, то ли по собственному капризу, недавно передала свой дух и силу японскому старшекласснику Кодзё Акацуки. Парень в один миг превратился в угрозу мировому равновесию и, понимая это, изо всех сил пытается вести привычную жизнь, не открываясь ни старым друзьям, ни младшей сестренке Нагисе. Пытается-то он пытается, да кто же такому поверит?!
Акацуки учится в островном городе Итогами, специально созданном для совместного проживания людей и демонов. Мало того, что его лоли-учительница Нацуки – сильный боевой маг, так еще правительство отправляет следить за бедным Кодзё школьницу-мико Юкину Химэраги, вооруженную чудо-копьем «Снежный вальс». 15-летняя Юкина, воспитанная в лесном монастыре, видит задачу просто – с объектом надо всегда быть рядом, остальное не важно. Наивная девочка не понимает, что при этом подопечный может и не выжить от потери крови… э-э, в основном через нос. Ничего, природа возьмет свое, и красавица вернет милому вампиру кровь с лихвой! И, поверьте, не она одна! © Hollow, World Art-Информационные ссылки: AniDB || World Art || MAL-Качество: BDRemux
Тип видео: без хардсаба
Формат: mkv
Видео: H.264, 1920x1080, 36,2 Мбит/сек, 23,976 fps
Аудио JAP: PCM, 48.0 KH,z, 2304 Kбит/с, 2ch

Список эпизодов


01. The Right Arm of the Saint I
02. The Right Arm of the Saint II
03. The Right Arm of the Saint III

Скриншоты

Подробные тех. данные

Общее
Уникальный идентификатор : 198599049574502282436145737086559015403 (0x9568C9205FBDE87FB7365032238351EB)
Полное имя : C:\Anime\Raws\Готовые\Strike the Blood [BDRemux 1080p]\Bonus\BDMenu Disc 1.mkv
Формат : Matroska
Версия формата : Version 2
Размер файла : 133 Мбайт
Продолжительность : 2 м. 5 с.
Режим общего битрейта : Переменный
Общий поток : 8922 Кбит/сек
Дата кодирования : UTC 2014-03-25 21:23:45
Программа кодирования : mkvmerge v5.6.0 ('Kenya Kane') built on Jun 29 2012 15:01:44
Библиотека кодирования : libebml v1.2.3 + libmatroska v1.3.0
Видео
Идентификатор : 1
Формат : AVC
Формат/Информация : Advanced Video Codec
Профиль формата : High@L4.1
Параметр CABAC формата : Да
Параметр ReFrames формата : 2 кадра
Параметр GOP формата : M=1, N=10
Режим смешивания : Header stripping
Идентификатор кодека : V_MPEG4/ISO/AVC
Продолжительность : 2 м. 5 с.
Вид битрейта : Переменный
Ширина : 1920 пикселей
Высота : 1080 пикселей
Соотношение сторон : 16:9
Режим частоты кадров : Постоянный
Частота кадров : 23,976 кадра/сек
Цветовое пространство : YUV
Субдискретизация насыщенности : 4:2:0
Битовая глубина : 8 бит
Тип развёртки : Прогрессивная
Default : Да
Forced : Нет
Аудио
Идентификатор : 2
Формат : PCM
Идентификатор кодека : A_PCM/INT/LIT
Продолжительность : 2 м. 5 с.
Вид битрейта : Постоянный
Каналы : 2 канала
Частота : 48,0 КГц
Битовая глубина : 16 бит
Язык : Japanese
Default : Да
Forced : Нет
Общее
Уникальный идентификатор : 188081625078083150827507896266438940456 (0x8D7F34103B89B658B9E96BAEF4A31728)
Полное имя : C:\Anime\Raws\Готовые\Strike the Blood [BDRemux 1080p]\Bonus\Ending.mkv
Формат : Matroska
Версия формата : Version 2
Размер файла : 391 Мбайт
Продолжительность : 1 м. 31 с.
Режим общего битрейта : Переменный
Общий поток : 36,0 Мбит/сек
Дата кодирования : UTC 2014-03-25 21:22:54
Программа кодирования : mkvmerge v5.6.0 ('Kenya Kane') built on Jun 29 2012 15:01:44
Библиотека кодирования : libebml v1.2.3 + libmatroska v1.3.0
Видео
Идентификатор : 1
Формат : AVC
Формат/Информация : Advanced Video Codec
Профиль формата : High@L4.1
Параметр CABAC формата : Да
Параметр ReFrames формата : 2 кадра
Параметр GOP формата : M=1, N=10
Режим смешивания : Header stripping
Идентификатор кодека : V_MPEG4/ISO/AVC
Продолжительность : 1 м. 31 с.
Вид битрейта : Переменный
Ширина : 1920 пикселей
Высота : 1080 пикселей
Соотношение сторон : 16:9
Режим частоты кадров : Постоянный
Частота кадров : 23,976 кадра/сек
Цветовое пространство : YUV
Субдискретизация насыщенности : 4:2:0
Битовая глубина : 8 бит
Тип развёртки : Прогрессивная
Default : Да
Forced : Нет
Аудио
Идентификатор : 2
Формат : PCM
Идентификатор кодека : A_PCM/INT/LIT
Продолжительность : 1 м. 31 с.
Вид битрейта : Постоянный
Каналы : 2 канала
Частота : 48,0 КГц
Битовая глубина : 24 бит
Язык : Japanese
Default : Да
Forced : Нет
Общее
Уникальный идентификатор : 239299869447202823495849675703808752512 (0xB4077A7A1A2CC89BA341A2AFC488FB80)
Полное имя : C:\Anime\Raws\Готовые\Strike the Blood [BDRemux 1080p]\Bonus\Opening.mkv
Формат : Matroska
Версия формата : Version 2
Размер файла : 388 Мбайт
Продолжительность : 1 м. 31 с.
Режим общего битрейта : Переменный
Общий поток : 35,5 Мбит/сек
Дата кодирования : UTC 2014-03-25 21:22:04
Программа кодирования : mkvmerge v5.6.0 ('Kenya Kane') built on Jun 29 2012 15:01:44
Библиотека кодирования : libebml v1.2.3 + libmatroska v1.3.0
Видео
Идентификатор : 1
Формат : AVC
Формат/Информация : Advanced Video Codec
Профиль формата : High@L4.1
Параметр CABAC формата : Да
Параметр ReFrames формата : 2 кадра
Режим смешивания : Header stripping
Идентификатор кодека : V_MPEG4/ISO/AVC
Продолжительность : 1 м. 31 с.
Вид битрейта : Переменный
Ширина : 1920 пикселей
Высота : 1080 пикселей
Соотношение сторон : 16:9
Режим частоты кадров : Постоянный
Частота кадров : 23,976 кадра/сек
Цветовое пространство : YUV
Субдискретизация насыщенности : 4:2:0
Битовая глубина : 8 бит
Тип развёртки : Прогрессивная
Default : Да
Forced : Нет
Аудио
Идентификатор : 2
Формат : PCM
Идентификатор кодека : A_PCM/INT/LIT
Продолжительность : 1 м. 31 с.
Вид битрейта : Постоянный
Каналы : 2 канала
Частота : 48,0 КГц
Битовая глубина : 24 бит
Язык : Japanese
Default : Да
Forced : Нет
Общее
Полное имя : C:\Anime\Raws\Готовые\Strike the Blood [BDRemux 1080p]\Scans\01.png
Формат : PNG
Формат/Информация : Portable Network Graphic
Размер файла : 30,5 Мбайт
Изображения
Формат : PNG
Формат/Информация : Portable Network Graphic
Ширина : 2304 пикселя
Высота : 3101 пикселей
Битовая глубина : 48 бит
Метод сжатия : Без потерь
Размер потока : 30,5 Мбайт (100%)
Общее
Полное имя : C:\Anime\Raws\Готовые\Strike the Blood [BDRemux 1080p]\Scans\02.png
Формат : PNG
Формат/Информация : Portable Network Graphic
Размер файла : 4,06 Мбайт
Изображения
Формат : PNG
Формат/Информация : Portable Network Graphic
Ширина : 295 пикселей
Высота : 3423 пикселя
Битовая глубина : 48 бит
Метод сжатия : Без потерь
Размер потока : 4,06 Мбайт (100%)
Общее
Полное имя : C:\Anime\Raws\Готовые\Strike the Blood [BDRemux 1080p]\Scans\03.png
Формат : PNG
Формат/Информация : Portable Network Graphic
Размер файла : 27,7 Мбайт
Изображения
Формат : PNG
Формат/Информация : Portable Network Graphic
Ширина : 2328 пикселей
Высота : 3103 пикселя
Битовая глубина : 48 бит
Метод сжатия : Без потерь
Размер потока : 27,7 Мбайт (100%)
Общее
Полное имя : C:\Anime\Raws\Готовые\Strike the Blood [BDRemux 1080p]\Scans\04.png
Формат : PNG
Формат/Информация : Portable Network Graphic
Размер файла : 30,0 Мбайт
Изображения
Формат : PNG
Формат/Информация : Portable Network Graphic
Ширина : 2282 пикселя
Высота : 3036 пикселей
Битовая глубина : 48 бит
Метод сжатия : Без потерь
Размер потока : 30,0 Мбайт (100%)
Общее
Полное имя : C:\Anime\Raws\Готовые\Strike the Blood [BDRemux 1080p]\Scans\05.png
Формат : PNG
Формат/Информация : Portable Network Graphic
Размер файла : 59,5 Мбайт
Изображения
Формат : PNG
Формат/Информация : Portable Network Graphic
Ширина : 4683 пикселя
Высота : 3038 пикселей
Битовая глубина : 48 бит
Метод сжатия : Без потерь
Размер потока : 59,5 Мбайт (100%)
Общее
Полное имя : C:\Anime\Raws\Готовые\Strike the Blood [BDRemux 1080p]\Scans\06.png
Формат : PNG
Формат/Информация : Portable Network Graphic
Размер файла : 62,1 Мбайт
Изображения
Формат : PNG
Формат/Информация : Portable Network Graphic
Ширина : 4692 пикселя
Высота : 3036 пикселей
Битовая глубина : 48 бит
Метод сжатия : Без потерь
Размер потока : 62,1 Мбайт (100%)
Общее
Полное имя : C:\Anime\Raws\Готовые\Strike the Blood [BDRemux 1080p]\Scans\07.png
Формат : PNG
Формат/Информация : Portable Network Graphic
Размер файла : 56,6 Мбайт
Изображения
Формат : PNG
Формат/Информация : Portable Network Graphic
Ширина : 4684 пикселя
Высота : 3060 пикселей
Битовая глубина : 48 бит
Метод сжатия : Без потерь
Размер потока : 56,6 Мбайт (100%)
Общее
Полное имя : C:\Anime\Raws\Готовые\Strike the Blood [BDRemux 1080p]\Scans\08.png
Формат : PNG
Формат/Информация : Portable Network Graphic
Размер файла : 13,1 Мбайт
Изображения
Формат : PNG
Формат/Информация : Portable Network Graphic
Ширина : 1764 пикселя
Высота : 2377 пикселей
Битовая глубина : 48 бит
Метод сжатия : Без потерь
Размер потока : 13,1 Мбайт (100%)
Общее
Полное имя : C:\Anime\Raws\Готовые\Strike the Blood [BDRemux 1080p]\Scans\BOOK\01.png
Формат : PNG
Формат/Информация : Portable Network Graphic
Размер файла : 30,4 Мбайт
Изображения
Формат : PNG
Формат/Информация : Portable Network Graphic
Ширина : 2232 пикселя
Высота : 3031 пикселей
Битовая глубина : 48 бит
Метод сжатия : Без потерь
Размер потока : 30,4 Мбайт (100%)
Общее
Полное имя : C:\Anime\Raws\Готовые\Strike the Blood [BDRemux 1080p]\Scans\BOOK\02.png
Формат : PNG
Формат/Информация : Portable Network Graphic
Размер файла : 59,2 Мбайт
Изображения
Формат : PNG
Формат/Информация : Portable Network Graphic
Ширина : 4439 пикселей
Высота : 3039 пикселей
Битовая глубина : 48 бит
Метод сжатия : Без потерь
Размер потока : 59,2 Мбайт (100%)
Общее
Полное имя : C:\Anime\Raws\Готовые\Strike the Blood [BDRemux 1080p]\Scans\BOOK\03.png
Формат : PNG
Формат/Информация : Portable Network Graphic
Размер файла : 58,2 Мбайт
Изображения
Формат : PNG
Формат/Информация : Portable Network Graphic
Ширина : 4424 пикселя
Высота : 3035 пикселей
Битовая глубина : 48 бит
Метод сжатия : Без потерь
Размер потока : 58,2 Мбайт (100%)
Общее
Полное имя : C:\Anime\Raws\Готовые\Strike the Blood [BDRemux 1080p]\Scans\BOOK\04.png
Формат : PNG
Формат/Информация : Portable Network Graphic
Размер файла : 58,4 Мбайт
Изображения
Формат : PNG
Формат/Информация : Portable Network Graphic
Ширина : 4430 пикселей
Высота : 3052 пикселя
Битовая глубина : 48 бит
Метод сжатия : Без потерь
Размер потока : 58,4 Мбайт (100%)
Общее
Полное имя : C:\Anime\Raws\Готовые\Strike the Blood [BDRemux 1080p]\Scans\BOOK\05.png
Формат : PNG
Формат/Информация : Portable Network Graphic
Размер файла : 61,2 Мбайт
Изображения
Формат : PNG
Формат/Информация : Portable Network Graphic
Ширина : 4456 пикселей
Высота : 3033 пикселя
Битовая глубина : 48 бит
Метод сжатия : Без потерь
Размер потока : 61,2 Мбайт (100%)
Общее
Полное имя : C:\Anime\Raws\Готовые\Strike the Blood [BDRemux 1080p]\Scans\BOOK\06.png
Формат : PNG
Формат/Информация : Portable Network Graphic
Размер файла : 62,1 Мбайт
Изображения
Формат : PNG
Формат/Информация : Portable Network Graphic
Ширина : 4433 пикселя
Высота : 3027 пикселей
Битовая глубина : 48 бит
Метод сжатия : Без потерь
Размер потока : 62,1 Мбайт (100%)
Общее
Полное имя : C:\Anime\Raws\Готовые\Strike the Blood [BDRemux 1080p]\Scans\BOOK\07.png
Формат : PNG
Формат/Информация : Portable Network Graphic
Размер файла : 27,5 Мбайт
Изображения
Формат : PNG
Формат/Информация : Portable Network Graphic
Ширина : 2240 пикселей
Высота : 3048 пикселей
Битовая глубина : 48 бит
Метод сжатия : Без потерь
Размер потока : 27,5 Мбайт (100%)
Общее
Полное имя : C:\Anime\Raws\Готовые\Strike the Blood [BDRemux 1080p]\Scans\NOVEL\01.png
Формат : PNG
Формат/Информация : Portable Network Graphic
Размер файла : 31,0 Мбайт
Изображения
Формат : PNG
Формат/Информация : Portable Network Graphic
Ширина : 2260 пикселей
Высота : 3057 пикселей
Битовая глубина : 48 бит
Метод сжатия : Без потерь
Размер потока : 31,0 Мбайт (100%)
Общее
Полное имя : C:\Anime\Raws\Готовые\Strike the Blood [BDRemux 1080p]\Scans\NOVEL\02.png
Формат : PNG
Формат/Информация : Portable Network Graphic
Размер файла : 28,0 Мбайт
Изображения
Формат : PNG
Формат/Информация : Portable Network Graphic
Ширина : 4545 пикселей
Высота : 3148 пикселей
Битовая глубина : 48 бит
Метод сжатия : Без потерь
Размер потока : 28,0 Мбайт (100%)
Общее
Полное имя : C:\Anime\Raws\Готовые\Strike the Blood [BDRemux 1080p]\Scans\NOVEL\03.png
Формат : PNG
Формат/Информация : Portable Network Graphic
Размер файла : 31,8 Мбайт
Изображения
Формат : PNG
Формат/Информация : Portable Network Graphic
Ширина : 4542 пикселя
Высота : 3126 пикселей
Битовая глубина : 48 бит
Метод сжатия : Без потерь
Размер потока : 31,8 Мбайт (100%)
Общее
Полное имя : C:\Anime\Raws\Готовые\Strike the Blood [BDRemux 1080p]\Scans\NOVEL\04.png
Формат : PNG
Формат/Информация : Portable Network Graphic
Размер файла : 25,9 Мбайт
Изображения
Формат : PNG
Формат/Информация : Portable Network Graphic
Ширина : 4513 пикселей
Высота : 3135 пикселей
Битовая глубина : 48 бит
Метод сжатия : Без потерь
Размер потока : 25,9 Мбайт (100%)
Общее
Полное имя : C:\Anime\Raws\Готовые\Strike the Blood [BDRemux 1080p]\Scans\NOVEL\05.png
Формат : PNG
Формат/Информация : Portable Network Graphic
Размер файла : 32,6 Мбайт
Изображения
Формат : PNG
Формат/Информация : Portable Network Graphic
Ширина : 4504 пикселя
Высота : 3132 пикселя
Битовая глубина : 48 бит
Метод сжатия : Без потерь
Размер потока : 32,6 Мбайт (100%)
Общее
Полное имя : C:\Anime\Raws\Готовые\Strike the Blood [BDRemux 1080p]\Scans\NOVEL\06.png
Формат : PNG
Формат/Информация : Portable Network Graphic
Размер файла : 30,2 Мбайт
Изображения
Формат : PNG
Формат/Информация : Portable Network Graphic
Ширина : 4493 пикселя
Высота : 3117 пикселей
Битовая глубина : 48 бит
Метод сжатия : Без потерь
Размер потока : 30,2 Мбайт (100%)
Общее
Полное имя : C:\Anime\Raws\Готовые\Strike the Blood [BDRemux 1080p]\Scans\NOVEL\07.png
Формат : PNG
Формат/Информация : Portable Network Graphic
Размер файла : 42,0 Мбайт
Изображения
Формат : PNG
Формат/Информация : Portable Network Graphic
Ширина : 4505 пикселей
Высота : 3120 пикселей
Битовая глубина : 48 бит
Метод сжатия : Без потерь
Размер потока : 42,0 Мбайт (100%)
Общее
Полное имя : C:\Anime\Raws\Готовые\Strike the Blood [BDRemux 1080p]\Scans\NOVEL\08.png
Формат : PNG
Формат/Информация : Portable Network Graphic
Размер файла : 30,4 Мбайт
Изображения
Формат : PNG
Формат/Информация : Portable Network Graphic
Ширина : 4492 пикселя
Высота : 3137 пикселей
Битовая глубина : 48 бит
Метод сжатия : Без потерь
Размер потока : 30,4 Мбайт (100%)
Общее
Полное имя : C:\Anime\Raws\Готовые\Strike the Blood [BDRemux 1080p]\Scans\NOVEL\09.png
Формат : PNG
Формат/Информация : Portable Network Graphic
Размер файла : 23,8 Мбайт
Изображения
Формат : PNG
Формат/Информация : Portable Network Graphic
Ширина : 4500 пикселей
Высота : 3114 пикселей
Битовая глубина : 48 бит
Метод сжатия : Без потерь
Размер потока : 23,8 Мбайт (100%)
Общее
Полное имя : C:\Anime\Raws\Готовые\Strike the Blood [BDRemux 1080p]\Scans\NOVEL\10.png
Формат : PNG
Формат/Информация : Portable Network Graphic
Размер файла : 27,9 Мбайт
Изображения
Формат : PNG
Формат/Информация : Portable Network Graphic
Ширина : 4524 пикселя
Высота : 3108 пикселей
Битовая глубина : 48 бит
Метод сжатия : Без потерь
Размер потока : 27,9 Мбайт (100%)
Общее
Полное имя : C:\Anime\Raws\Готовые\Strike the Blood [BDRemux 1080p]\Scans\NOVEL\11.png
Формат : PNG
Формат/Информация : Portable Network Graphic
Размер файла : 36,1 Мбайт
Изображения
Формат : PNG
Формат/Информация : Portable Network Graphic
Ширина : 4477 пикселей
Высота : 3115 пикселей
Битовая глубина : 48 бит
Метод сжатия : Без потерь
Размер потока : 36,1 Мбайт (100%)
Общее
Полное имя : C:\Anime\Raws\Готовые\Strike the Blood [BDRemux 1080p]\Scans\NOVEL\12.png
Формат : PNG
Формат/Информация : Portable Network Graphic
Размер файла : 10,5 Мбайт
Изображения
Формат : PNG
Формат/Информация : Portable Network Graphic
Ширина : 4506 пикселей
Высота : 3126 пикселей
Битовая глубина : 48 бит
Метод сжатия : Без потерь
Размер потока : 10,5 Мбайт (100%)
Общее
Полное имя : C:\Anime\Raws\Готовые\Strike the Blood [BDRemux 1080p]\Scans\NOVEL\13.png
Формат : PNG
Формат/Информация : Portable Network Graphic
Размер файла : 47,6 Мбайт
Изображения
Формат : PNG
Формат/Информация : Portable Network Graphic
Ширина : 4514 пикселей
Высота : 3131 пикселей
Битовая глубина : 48 бит
Метод сжатия : Без потерь
Размер потока : 47,6 Мбайт (100%)
Общее
Полное имя : C:\Anime\Raws\Готовые\Strike the Blood [BDRemux 1080p]\Scans\NOVEL\14.png
Формат : PNG
Формат/Информация : Portable Network Graphic
Размер файла : 17,7 Мбайт
Изображения
Формат : PNG
Формат/Информация : Portable Network Graphic
Ширина : 4501 пикселей
Высота : 3126 пикселей
Битовая глубина : 48 бит
Метод сжатия : Без потерь
Размер потока : 17,7 Мбайт (100%)
Общее
Полное имя : C:\Anime\Raws\Готовые\Strike the Blood [BDRemux 1080p]\Scans\NOVEL\15.png
Формат : PNG
Формат/Информация : Portable Network Graphic
Размер файла : 33,5 Мбайт
Изображения
Формат : PNG
Формат/Информация : Portable Network Graphic
Ширина : 4470 пикселей
Высота : 3131 пикселей
Битовая глубина : 48 бит
Метод сжатия : Без потерь
Размер потока : 33,5 Мбайт (100%)
Общее
Полное имя : C:\Anime\Raws\Готовые\Strike the Blood [BDRemux 1080p]\Scans\NOVEL\16.png
Формат : PNG
Формат/Информация : Portable Network Graphic
Размер файла : 30,3 Мбайт
Изображения
Формат : PNG
Формат/Информация : Portable Network Graphic
Ширина : 4512 пикселей
Высота : 3137 пикселей
Битовая глубина : 48 бит
Метод сжатия : Без потерь
Размер потока : 30,3 Мбайт (100%)
Общее
Полное имя : C:\Anime\Raws\Готовые\Strike the Blood [BDRemux 1080p]\Scans\NOVEL\17.png
Формат : PNG
Формат/Информация : Portable Network Graphic
Размер файла : 26,6 Мбайт
Изображения
Формат : PNG
Формат/Информация : Portable Network Graphic
Ширина : 2262 пикселя
Высота : 3067 пикселей
Битовая глубина : 48 бит
Метод сжатия : Без потерь
Размер потока : 26,6 Мбайт (100%)
Общее
Уникальный идентификатор : 211175705195376710762064672871191418613 (0x9EDEF61F60B54BE1AC30BCB3596016F5)
Полное имя : C:\Anime\Raws\Готовые\Strike the Blood [BDRemux 1080p]\Strike the Blood 01 [BDRemux 1080p].mkv
Формат : Matroska
Версия формата : Version 2
Размер файла : 5,99 Гбайт
Продолжительность : 23 м.
Режим общего битрейта : Переменный
Общий поток : 36,2 Мбит/сек
Дата кодирования : UTC 2014-03-25 20:48:06
Программа кодирования : mkvmerge v5.6.0 ('Kenya Kane') built on Jun 29 2012 15:01:44
Библиотека кодирования : libebml v1.2.3 + libmatroska v1.3.0
Видео
Идентификатор : 1
Формат : AVC
Формат/Информация : Advanced Video Codec
Профиль формата : High@L4.1
Параметр CABAC формата : Да
Параметр ReFrames формата : 2 кадра
Режим смешивания : Header stripping
Идентификатор кодека : V_MPEG4/ISO/AVC
Продолжительность : 23 м.
Вид битрейта : Переменный
Ширина : 1920 пикселей
Высота : 1080 пикселей
Соотношение сторон : 16:9
Режим частоты кадров : Постоянный
Частота кадров : 23,976 кадра/сек
Цветовое пространство : YUV
Субдискретизация насыщенности : 4:2:0
Битовая глубина : 8 бит
Тип развёртки : Прогрессивная
Default : Да
Forced : Нет
Аудио
Идентификатор : 2
Формат : PCM
Идентификатор кодека : A_PCM/INT/LIT
Продолжительность : 23 м.
Вид битрейта : Постоянный
Каналы : 2 канала
Частота : 48,0 КГц
Битовая глубина : 24 бит
Язык : Japanese
Default : Да
Forced : Нет
Общее
Уникальный идентификатор : 204510296509081738932793446851724692560 (0x99DB401A19478CD5972A03FD9B83CC50)
Полное имя : C:\Anime\Raws\Готовые\Strike the Blood [BDRemux 1080p]\Strike the Blood 02 [BDRemux 1080p].mkv
Формат : Matroska
Версия формата : Version 2
Размер файла : 5,98 Гбайт
Продолжительность : 23 м.
Режим общего битрейта : Переменный
Общий поток : 36,1 Мбит/сек
Дата кодирования : UTC 2014-03-25 20:54:10
Программа кодирования : mkvmerge v5.6.0 ('Kenya Kane') built on Jun 29 2012 15:01:44
Библиотека кодирования : libebml v1.2.3 + libmatroska v1.3.0
Видео
Идентификатор : 1
Формат : AVC
Формат/Информация : Advanced Video Codec
Профиль формата : High@L4.1
Параметр CABAC формата : Да
Параметр ReFrames формата : 2 кадра
Параметр GOP формата : M=1, N=10
Режим смешивания : Header stripping
Идентификатор кодека : V_MPEG4/ISO/AVC
Продолжительность : 23 м.
Вид битрейта : Переменный
Ширина : 1920 пикселей
Высота : 1080 пикселей
Соотношение сторон : 16:9
Режим частоты кадров : Постоянный
Частота кадров : 23,976 кадра/сек
Цветовое пространство : YUV
Субдискретизация насыщенности : 4:2:0
Битовая глубина : 8 бит
Тип развёртки : Прогрессивная
Default : Да
Forced : Нет
Аудио
Идентификатор : 2
Формат : PCM
Идентификатор кодека : A_PCM/INT/LIT
Продолжительность : 23 м.
Вид битрейта : Постоянный
Каналы : 2 канала
Частота : 48,0 КГц
Битовая глубина : 24 бит
Язык : Japanese
Default : Да
Forced : Нет
Общее
Уникальный идентификатор : 232968914377827315674674283073965043524 (0xAF442E4AF3810E249664105B04E6AF44)
Полное имя : C:\Anime\Raws\Готовые\Strike the Blood [BDRemux 1080p]\Strike the Blood 03 [BDRemux 1080p].mkv
Формат : Matroska
Версия формата : Version 2
Размер файла : 5,99 Гбайт
Продолжительность : 23 м.
Режим общего битрейта : Переменный
Общий поток : 36,2 Мбит/сек
Дата кодирования : UTC 2014-03-25 21:06:03
Программа кодирования : mkvmerge v5.6.0 ('Kenya Kane') built on Jun 29 2012 15:01:44
Библиотека кодирования : libebml v1.2.3 + libmatroska v1.3.0
Видео
Идентификатор : 1
Формат : AVC
Формат/Информация : Advanced Video Codec
Профиль формата : High@L4.1
Параметр CABAC формата : Да
Параметр ReFrames формата : 2 кадра
Параметр GOP формата : N=1
Режим смешивания : Header stripping
Идентификатор кодека : V_MPEG4/ISO/AVC
Продолжительность : 23 м.
Вид битрейта : Переменный
Ширина : 1920 пикселей
Высота : 1080 пикселей
Соотношение сторон : 16:9
Режим частоты кадров : Постоянный
Частота кадров : 23,976 кадра/сек
Цветовое пространство : YUV
Субдискретизация насыщенности : 4:2:0
Битовая глубина : 8 бит
Тип развёртки : Прогрессивная
Default : Да
Forced : Нет
Аудио
Идентификатор : 2
Формат : PCM
Идентификатор кодека : A_PCM/INT/LIT
Продолжительность : 23 м.
Вид битрейта : Постоянный
Каналы : 2 канала
Частота : 48,0 КГц
Битовая глубина : 24 бит
Язык : Japanese
Default : Да
Forced : Нет
Общее
Полное имя : C:\Anime\Raws\Готовые\Strike the Blood [BDRemux 1080p]\Subs\Strike the Blood 01 [BDRemux 1080p].ass
Размер файла : 46,9 Кбайт
Общее
Полное имя : C:\Anime\Raws\Готовые\Strike the Blood [BDRemux 1080p]\Subs\Strike the Blood 02 [BDRemux 1080p].ass
Размер файла : 48,9 Кбайт
Общее
Полное имя : C:\Anime\Raws\Готовые\Strike the Blood [BDRemux 1080p]\Subs\Strike the Blood 03 [BDRemux 1080p].ass
Размер файла : 51,9 Кбайт
Общее
Полное имя : C:\Anime\Raws\Готовые\Strike the Blood [BDRemux 1080p]\Subs\надписи\Strike the Blood 01 [BDRemux 1080p].ass
Размер файла : 10,8 Кбайт
Общее
Полное имя : C:\Anime\Raws\Готовые\Strike the Blood [BDRemux 1080p]\Subs\надписи\Strike the Blood 02 [BDRemux 1080p].ass
Размер файла : 15,0 Кбайт
Общее
Полное имя : C:\Anime\Raws\Готовые\Strike the Blood [BDRemux 1080p]\Subs\надписи\Strike the Blood 03 [BDRemux 1080p].ass
Размер файла : 15,7 Кбайт

_________________
Показать сообщения:    

Текущее время: Сегодня 16:12

Часовой пояс: GMT



Вы не можете начинать темы
Вы не можете отвечать на сообщения
Вы не можете редактировать свои сообщения
Вы не можете удалять свои сообщения
Вы не можете голосовать в опросах
Вы не можете прикреплять файлы к сообщениям
Вы не можете скачивать файлы