Важное объявление!
У Нас Все раздачи мультитрекерные, при нуле пиров в релизах, можете смело вставать на закачку!
 
Автор Сообщение

HUNTER

Стаж:
4 года 4 месяца
Сообщений:
56733

Репутация: 101

[+] [-]
Вне форума [Профиль] [ЛС]

-
Год выпуска: 2013
Страна: Япония
Жанр: фэнтези
Продолжительность: ТВ-сериал, 24 эп. по 24 мин.
Выпуск: c 04.10.2013-Перевод:
  • русские субтитры от LeDi-MaHo Team (полные/вспомогательные)
    редактор: Holydarkness, переводчик: MantisFL, оформление: Raikiri
-Режиссер: Ямамото Хидэё
Студия: Silver Link-Описание:
Человечество заключило с демоническими силами нерушимый мирный договор, который от имени нечисти и нежити заверили три Истинных Предка, высшие князья вампиров. Только мало кто знает, что существует и Четвертый Предок, сильнейший вампир в истории, и уж совсем узкому кругу известно, что она, то ли по воле судьбы, то ли по собственному капризу, недавно передала свой дух и силу японскому старшекласснику Кодзё Акацуки. Парень в один миг превратился в угрозу мировому равновесию и, понимая это, изо всех сил пытается вести привычную жизнь, не открываясь ни старым друзьям, ни младшей сестренке Нагисе. Пытается-то он пытается, да кто же такому поверит?!
Акацуки учится в островном городе Итогами, специально созданном для совместного проживания людей и демонов. Мало того, что его лоли-учительница Нацуки – сильный боевой маг, так еще правительство отправляет следить за бедным Кодзё школьницу-мико Юкину Химэраги, вооруженную чудо-копьем «Снежный вальс». 15-летняя Юкина, воспитанная в лесном монастыре, видит задачу просто – с объектом надо всегда быть рядом, остальное не важно. Наивная девочка не понимает, что при этом подопечный может и не выжить от потери крови… э-э, в основном через нос. Ничего, природа возьмет свое, и красавица вернет милому вампиру кровь с лихвой! И, поверьте, не она одна!
© Hollow, World Art
Strike – один из самых многозначных английских глаголов, но, учитывая сюжет, название сериала можно понять как «Зажги кровь!»-Информационные ссылки: AniDB || World Art || MAL-Качество: BDRip
Энкод: Winter - RG Pantheon
Тип видео: без хардсаба, без линковки
Формат: mkv
Видео: x264 (Hi10p), 1280x720, ~4300 Kbps, 23.976 fps
Аудио JAP: Vorbis, 48000Hz, ~256 Kbps, 2ch
Аудио RUS 1: AC3, 48000Hz, ~192 Kbps, 2ch (внешними файлами)
Аудио RUS 2: AC3, 48000Hz, ~192 Kbps, 2ch (внешними файлами)-

Список озвучек в раздаче

  • двухголосая (муж./жен.) от Milirina & Sad_kit (Anything-group)
  • двухголосая (муж./жен.) от Zendos & Eladiel (Anilibria)

Список эпизодов

01. The Right Arm of the Saint I

Скриншоты


Подробные тех. данные

Общее
Уникальный идентификатор : 176782964610481716188574324596077306998 (0x84FF2917D82E7ABFAA628FC844E52476)
Полное имя : Z:\Anime\720p\Strike the Blood [BD] [720p]\[Winter] Strike the Blood 01 [BDrip 1280x720 x264 Vorbis].mkv
Формат : Matroska
Версия формата : Version 2
Размер файла : 780 Мбайт
Продолжительность : 23 м.
Режим общего битрейта : Переменный
Общий поток : 4600 Кбит/сек
Дата кодирования : UTC 2014-02-28 04:12:50
Программа кодирования : mkvmerge v2.9.8 ('C'est le bon') built on Aug 13 2009 12:49:06
Библиотека кодирования : libebml v0.7.7 + libmatroska v0.8.1
Видео
Идентификатор : 1
Формат : AVC
Формат/Информация : Advanced Video Codec
Профиль формата : High 10@L4.1
Параметр CABAC формата : Да
Параметр ReFrames формата : 9 кадров
Идентификатор кодека : V_MPEG4/ISO/AVC
Продолжительность : 23 м.
Битрейт : 4252 Кбит/сек
Ширина : 1280 пикселей
Высота : 720 пикселей
Соотношение сторон : 16:9
Режим частоты кадров : Постоянный
Частота кадров : 23,976 кадра/сек
Цветовое пространство : YUV
Субдискретизация насыщенности : 4:2:0
Битовая глубина : 10 бит
Тип развёртки : Прогрессивная
Бит/(Пиксели*Кадры) : 0.192
Размер потока : 721 Мбайт (92%)
Библиотека кодирования : x264 core 132 r2309 3b1f1f7
Настройки программы : cabac=1 / ref=9 / deblock=1:-2:-2 / analyse=0x3:0x133 / me=umh / subme=9 / psy=1 / psy_rd=0.90:0.00 / mixed_ref=1 / me_range=24 / chroma_me=1 / trellis=2 / 8x8dct=1 / cqm=0 / deadzone=21,11 / fast_pskip=1 / chroma_qp_offset=-2 / threads=12 / lookahead_threads=2 / sliced_threads=0 / nr=0 / decimate=0 / interlaced=0 / bluray_compat=0 / constrained_intra=0 / bframes=8 / b_pyramid=2 / b_adapt=2 / b_bias=0 / direct=1 / weightb=1 / open_gop=0 / weightp=2 / keyint=250 / keyint_min=23 / scenecut=40 / intra_refresh=0 / rc=crf / mbtree=0 / crf=15.9 / qcomp=0.70 / qpmin=9 / qpmax=40 / qpstep=4 / ip_ratio=1.40 / pb_ratio=1.30 / aq=1:0.90 / zones=10584,12389,b=1.2/25558,25636,b=1.2/29076,29134,b=1.2/31361,32684,b=1.3
Default : Нет
Forced : Нет
Аудио
Идентификатор : 2
Формат : Vorbis
Параметр Floor формата : 1
Идентификатор кодека : A_VORBIS
Продолжительность : 23 м.
Вид битрейта : Переменный
Битрейт : 256 Кбит/сек
Каналы : 2 канала
Частота : 48,0 КГц
Метод сжатия : С потерями
Размер потока : 43,4 Мбайт (6%)
Библиотека кодирования : libVorbis (Schaufenugget) (20101101 (Schaufenugget))
Язык : Japanese
Default : Да
Forced : Нет
- -

Информация о релизе

  • Выбор видео, перевода, озвучки, а также типа сборки материала осуществляется релизером и не подлежит обсуждению. Если вы считаете, что раздаваемый материал противоречит правилам раздела "Аниме" rutracker.org, сообщите об этом одному из модераторов раздела.
  • В случае появления нового материала или же лучшего по качеству материала релизер оставляет за собой право обновить раздачу. В этом случае вам необходимо ознакомиться с изменениями (добавлениями) и перекачать торрент.
  • Данный релиз предназначен для просмотра на ПК. Воспроизведение на иных проигрывателях не гарантируется. Для просмотра рекомендуется Media Player Classic с установленным пакетом кодеков K-Lite.
  • Данный релиз содержит 10-битное видео (Hi10p). Для корректного воспроизведения обязательно используйте кодеки, поддерживающие 10-битное видео.
    Обсудить частные случаи проблем с воспроизведением и получить дополнительную информацию можно здесь.

  • Данный релиз предназначен для просмотра с внешними субтитрами и внешними звуковыми дорожками.
    • Для просмотра с внешней звуковой дорожкой нужно:
      перекинуть файлы .mka из папки "RUS Sound [<автор(ы) озвучки>]" в одну папку с видео и переключить звуковую дорожку в плеере при просмотре. Как это сделать в разных плеерах подробно описано здесь.

    • Для просмотра с субтитрами нужно:
      перекинуть файлы .ass из папки "RUS Subtitles [<автор(ы) перевода>]" в одну папку с видео - плеер подгрузит их автоматически при открытии видео.
  • Если у вас возникли проблемы с просмотром, не связанные с описанным выше, сообщите о них автору раздачи посредством сообщения в теме или ЛС Aglenn.

_________________
Показать сообщения:    

Текущее время: Сегодня 19:14

Часовой пояс: GMT



Вы не можете начинать темы
Вы не можете отвечать на сообщения
Вы не можете редактировать свои сообщения
Вы не можете удалять свои сообщения
Вы не можете голосовать в опросах
Вы не можете прикреплять файлы к сообщениям
Вы не можете скачивать файлы