Важное объявление!
У Нас Все раздачи мультитрекерные, при нуле пиров в релизах, можете смело вставать на закачку!
 
Автор Сообщение

HUNTER

Стаж:
4 года 4 месяца
Сообщений:
56722

Репутация: 101

[+] [-]
Вне форума [Профиль] [ЛС]

Сонная лощина / Всадник без головы из сонной долины
The Haunted Pumpkin of Sleepy Hollow

Страна: США
Жанр: Фэнтези, приключения
Продолжительность: 00:47:27
Год выпуска: 2003
Перевод 1: Профессиональный (многоголосый закадровый) (Варм-саунд)
Перевод 2: Профессиональный (многоголосый закадровый) R5
Перевод 3: Авторский (одноголосый закадровый) (Андрей Дольский)
Русские субтитры: нет
Режиссёр: Вонг Зевен / Vong Zeven-Описание: Эта удивительная история случилась в маленьком городке под названием Сонная Лощина во время праздника Хэллоуин. Двое друзей Кейт и Ник на соседском огороде находят необычную тыкву. Оказывается, что это тыква заколдована, и на самом деле является головой всадника, известного с давних времен как "всадник без головы"! Если тыква окажется на своем "законном" месте - на шее всадника, то он снова начнет терроризировать Сонную Лощину. Ребятам предстоит проявить всю свою храбрость и смекалку, чтобы этого не допустить.-Доп. материалы: отсутствуют
Качество: DVD5 (Custom)
Формат: DVD-video
Видео: MPEG-2 PAL, 720x576, 25fps, ~4400 Kb/s
Аудио 1: AC3, 48khz, 2ch, 192 kb/s, Русский (MVO)
Аудио 2: AC3, 48khz, 2ch, 192 kb/s, Русский (MVO)
Аудио 3: AC3, 48khz, 2ch, 192 kb/s, Русский (AVO)
Аудио 4: AC3, 48khz, 2ch, 224 kb/s, English
Аудио 4: AC3, 48khz, 2ch, 224 kb/s, Deutsch
Субтитры: отсутствуют
Релиз:

DVDInfo

Title: The Haunted Pumpkin of Sleepy Hollow DVD5Size: 1.87 Gb ( 1 959 394,00 KBytes ) - DVD-5Enabled regions: 1, 2, 3, 4, 5, 6, 7, 8
VTS_01 : Play Length: 00:00:08 Video: PAL 4:3 (720x576) VBR Audio: Not specified (Dolby AC3, 2 ch)
VTS_02 : Play Length: 00:47:27 Video: PAL 4:3 (720x576) VBR Audio: Russian (Dolby AC3, 2 ch) Russian (Dolby AC3, 2 ch) Russian (Dolby AC3, 2 ch) English (Dolby AC3, 2 ch) Deutsch (Dolby AC3, 2 ch)
* Menus Information *
VIDEO_TS MenuVideo: NTSC 4:3 (720x480) VBR Auto Pan&Scan, Auto LetterboxedDeutsch Language Unit : Title Menu
VTS_01 MenuVideo: NTSC 4:3 (720x480) VBR Auto Pan&Scan, Auto LetterboxedDeutsch Language Unit : Root Menu
VTS_02 MenuVideo: PAL 4:3 (720x576) VBRAudio: Not specified (Dolby AC3, 2 ch)Russian Language Unit : Root Menu

MediaInfo

ОбщееПолное имя : E:\MULTFILMS\The Haunted Pumpkin of Sleepy Hollow DVD5\VIDEO_TS\VTS_02_1.VOBФормат : MPEG-PSРазмер файла : 1024 МбайтПродолжительность : 25 м.Режим общего битрейта : ПеременныйОбщий поток : 5542 Кбит/сек
ВидеоИдентификатор : 224 (0xE0)Формат : MPEG VideoВерсия формата : Version 2Профиль формата : Main@MainПараметр BVOP формата : ДаПараметр матрицы формата : ВыборочнаяПараметр GOP формата : VariableПродолжительность : 25 м.Вид битрейта : ПеременныйБитрейт : 4407 Кбит/секМаксимальный битрейт : 7500 Кбит/секШирина : 720 пикселейВысота : 576 пикселейСоотношение сторон : 4:3Частота кадров : 25,000 кадров/секСтандарт вещания : PALЦветовое пространство : YUVСубдискретизация насыщенности : 4:2:0Битовая глубина : 8 битТип развёртки : ЧересстрочнаяПорядок развёртки : Верхнее поле первоеМетод сжатия : С потерямиБит/(Пиксели*Кадры) : 0.425Временной код первого кадра : 00:01:59:10Оригинал временного кода : Group of pictures headerРазмер потока : 814 Мбайт (80%)
Аудио #1Идентификатор : 189 (0xBD)-128 (0x80)Формат : AC-3Формат/Информация : Audio Coding 3Расширение режима : CM (complete main)Параметр Endianness формата : BigРежим смешивания : DVD-VideoПродолжительность : 25 м.Вид битрейта : ПостоянныйБитрейт : 192 Кбит/секКаналы : 2 каналаРасположение каналов : Front: L RЧастота : 48,0 КГцБитовая глубина : 16 битМетод сжатия : С потерямиЗадержка видео : -80 мс.Размер потока : 35,5 Мбайт (3%)
Аудио #2Идентификатор : 189 (0xBD)-129 (0x81)Формат : AC-3Формат/Информация : Audio Coding 3Расширение режима : CM (complete main)Параметр Endianness формата : BigРежим смешивания : DVD-VideoПродолжительность : 25 м.Вид битрейта : ПостоянныйБитрейт : 192 Кбит/секКаналы : 2 каналаРасположение каналов : Front: L RЧастота : 48,0 КГцБитовая глубина : 16 битМетод сжатия : С потерямиЗадержка видео : -80 мс.Размер потока : 35,5 Мбайт (3%)
Аудио #3Идентификатор : 189 (0xBD)-130 (0x82)Формат : AC-3Формат/Информация : Audio Coding 3Расширение режима : CM (complete main)Параметр Endianness формата : BigРежим смешивания : DVD-VideoПродолжительность : 25 м.Вид битрейта : ПостоянныйБитрейт : 192 Кбит/секКаналы : 2 каналаРасположение каналов : Front: L RЧастота : 48,0 КГцБитовая глубина : 16 битМетод сжатия : С потерямиЗадержка видео : -80 мс.Размер потока : 35,5 Мбайт (3%)
Аудио #4Идентификатор : 189 (0xBD)-131 (0x83)Формат : AC-3Формат/Информация : Audio Coding 3Расширение режима : CM (complete main)Параметр Endianness формата : BigРежим смешивания : DVD-VideoПродолжительность : 25 м.Вид битрейта : ПостоянныйБитрейт : 224 Кбит/секКаналы : 2 каналаРасположение каналов : Front: L RЧастота : 48,0 КГцБитовая глубина : 16 битМетод сжатия : С потерямиЗадержка видео : -80 мс.Размер потока : 41,4 Мбайт (4%)
Аудио #5Идентификатор : 189 (0xBD)-132 (0x84)Формат : AC-3Формат/Информация : Audio Coding 3Расширение режима : CM (complete main)Параметр Endianness формата : BigРежим смешивания : DVD-VideoПродолжительность : 25 м.Вид битрейта : ПостоянныйБитрейт : 224 Кбит/секКаналы : 2 каналаРасположение каналов : Front: L RЧастота : 48,0 КГцБитовая глубина : 16 битМетод сжатия : С потерямиЗадержка видео : -80 мс.Размер потока : 41,4 Мбайт (4%)
Меню

Скриншоты меню

Скриншоты


Информация по сборке

Диск собран из немецкого DVD.
Используемый софт:
PgcDemux (Разборка диска)
BeSweet (Распаковка звука в формат WAV)
Adobe Audition (Синхронизация аудио)
Minnetonka Audio (Конвертация звука в формат Dolby AC3)
MuxMan (Сборка диска)
Adobe Photoshop (Редактирование пунктов меню)
DVDSubEdit (Редактирование подсветки кнопок меню)
DVD Remake Pro (Реавторинг DVD)

_________________
Показать сообщения:    

Текущее время: Сегодня 08:30

Часовой пояс: GMT



Вы не можете начинать темы
Вы не можете отвечать на сообщения
Вы не можете редактировать свои сообщения
Вы не можете удалять свои сообщения
Вы не можете голосовать в опросах
Вы не можете прикреплять файлы к сообщениям
Вы не можете скачивать файлы