Важное объявление!
У Нас Все раздачи мультитрекерные, при нуле пиров в релизах, можете смело вставать на закачку!
 
Автор Сообщение

HUNTER

Стаж:
4 года 4 месяца
Сообщений:
56749

Репутация: 101

[+] [-]
Вне форума [Профиль] [ЛС]

Солнечные пятна / Пятна на солнце / Вскрытие / Жертва / Macchie Solari / Autopsy / Corpse / The Victim / Tension / The Magician
Страна: Италия
Студия: Clodio Cinematografic
Жанр: джалло
Год выпуска: 1975
Продолжительность: 01:46:31
Перевод: Одноголосый закадровый Котов
Cубтитры: нет
Оригинальная аудиодорожка: итальянский
Режиссер: Армандо Криспино / Armando Crispino
В ролях: Мимси Фармер, Барри Примус, Анжела Гудвин
Описание: Очаровательная блондинка, студентка медицинского факультета Симона пишет диссертацию на тему самоубийств и убийств, выглядящих как самоубийства. В это время года в городе регистрируется необычайно большое количество весьма странных самоубийств. Симона работает в морге. Однажды она видит, как труп оживает и пытается изнасиловать ее. Симона находится на грани нервного срыва. Оказывается, это ее сослуживец и друг Эдгар пытался подшутить над ней, выдав себя за труп. Он отвозит ее домой и пытается извиниться. Когда Симона поднимается в свою квартиру, ее неожиданно беспокоит стук в дверь. Это молодая девушка Бетти, которая остановилась в квартире отца Симоны этажом выше. Она просит у нее конверт. Бетти рассказывает, что она американка и собирается уезжать к себе домой на следующий день. Но ей не суждено этого сделать: на следующий день Бетти обнаруживают мертвой на пляже. Симона начинает подозревать, что в убийстве может быть замешан ее собственный отец. Следующей жертвой отказывается консьерж из квартиры отца, пришедший убрать ее. Священник, отец Пол Леннокс, начинает расследование. Дело в том, что погибшей оказалась его сестра, на которой собирался жениться отец Симоны. Отец Леннокс считает, что во всем виновен он, но Симона не соглашается с ним. Вскоре обнаруживают злосчастный конверт, содержащий предсмертную записку Бетти, адресованную отцу Симоны. Вскоре на саму Симону совершается нападение, которое маскируется под покушение на самоубийство. По крайней мере, так считает отец Леннокс, который объясняет это нервным срывом девушки из-за того, что Симона узнала о преступлениях своего отца. Симона выясняет, что причина увеличения числа самоубийств кроется в крайней солнечной активности, когда на нем появляются пятна. Вскоре близкие к Симоне люди начинают выпадать из высоко расположенных окон, и картина превращается в загадочную цепь убийств с рядом явных и скрытых подозреваемых. Трупы начинают скапливаться вокруг Симоны, и она уже не знает, кому может доверять-своему отцу, священнику, партнеру отца по бизнесу, другу Эдгару или самой себе…
Фильм состоит из нескончаемых эпизодов смертей, шокирующего насилия и ничем не вызванной обнаженной натуры. Интересно, что когда в Италии летом стоит страшная жара, то действительно увеличивается число самоубийств. Героиня Мимси Фармер напоминает Катрин Денев в картине «Отвращение» (1965), такую же холодную и сексуально подавленную женщину. Можно отметить, что только Скалли и Малдер, может быть, провели в морге больше времени, чем священник и наша героиня.
Доп. информация: Диск из собственной коллекции.
Бонусы: Трейлеры
Сэмпл: http://sendfile.su/1126070
Тип релиза: DVD5 (Custom)
Контейнер: DVD-Video
Видео: NTSC 16:9 (720x480) VBR Auto Pan&Scan
Аудио: Russian (Dolby AC3, 192 Kbps, 2 ch)
Аудио 2: English (Dolby AC3, 192 Kbps, 2 ch)
Аудио 3: Italiano (Dolby AC3, 192 Kbps, 2 ch)

DVDInfo

Size: 4.32 Gb ( 4 531 488 KBytes ) - DVD-5
Enabled regions: 1, 2, 3, 4, 5, 6
VTS_01 :
Play Length: 01:40:09+00:03:44+00:02:38
Video: NTSC 16:9 (720x480) VBR, Auto Pan&Scan
Audio:
Russian (Dolby AC3, 2 ch)
English (Dolby AC3, 2 ch)
Italiano (Dolby AC3, 2 ch)
Subtitles:
English
Menu Video:
NTSC 4:3 (720x480) VBR
Menu Audio:
Not specified (Dolby AC3, 2 ch)
Menu Subtitles:
Not specified
Menu English Language Unit :
Root Menu

MediaInfo

General
Complete name : F:\Macchie solari_1975\VIDEO_TS\VTS_01_1.VOB
Format : MPEG-PS
File size : 1 024 MiB
Duration : 23mn 46s
Overall bit rate mode : Variable
Overall bit rate : 6 021 Kbps
Video
ID : 224 (0xE0)
Format : MPEG Video
Format version : Version 2
Format profile : Main@Main
Format settings, BVOP : Yes
Format settings, Matrix : Custom
Duration : 23mn 46s
Bit rate mode : Variable
Bit rate : 5 326 Kbps
Maximum bit rate : 9 000 Kbps
Width : 720 pixels
Height : 480 pixels
Display aspect ratio : 16:9
Frame rate : 29.970 fps
Standard : NTSC
Color space : YUV
Chroma subsampling : 4:2:0
Bit depth : 8 bits
Compression mode : Lossy
Bits/(Pixel*Frame) : 0.514
Stream size : 906 MiB (88%)
Audio #1
ID : 189 (0xBD)-128 (0x80)
Format : AC-3
Format/Info : Audio Coding 3
Mode extension : CM (complete main)
Format settings, Endianness : Big
Muxing mode : DVD-Video
Duration : 23mn 46s
Bit rate mode : Constant
Bit rate : 192 Kbps
Channel(s) : 2 channels
Channel positions : Front: L R
Sampling rate : 48.0 KHz
Bit depth : 16 bits
Compression mode : Lossy
Delay relative to video : -66ms
Stream size : 32.6 MiB (3%)
Audio #2
ID : 189 (0xBD)-129 (0x81)
Format : AC-3
Format/Info : Audio Coding 3
Mode extension : CM (complete main)
Format settings, Endianness : Big
Muxing mode : DVD-Video
Duration : 23mn 46s
Bit rate mode : Constant
Bit rate : 192 Kbps
Channel(s) : 2 channels
Channel positions : Front: L R
Sampling rate : 48.0 KHz
Bit depth : 16 bits
Compression mode : Lossy
Delay relative to video : -66ms
Stream size : 32.6 MiB (3%)
Audio #3
ID : 189 (0xBD)-130 (0x82)
Format : AC-3
Format/Info : Audio Coding 3
Mode extension : CM (complete main)
Format settings, Endianness : Big
Muxing mode : DVD-Video
Duration : 23mn 46s
Bit rate mode : Constant
Bit rate : 192 Kbps
Channel(s) : 2 channels
Channel positions : Front: L R
Sampling rate : 48.0 KHz
Bit depth : 16 bits
Compression mode : Lossy
Delay relative to video : -66ms
Stream size : 32.6 MiB (3%)
Menu

Постеры

Скриншоты меню


_________________
Показать сообщения:    

Текущее время: Сегодня 02:17

Часовой пояс: GMT



Вы не можете начинать темы
Вы не можете отвечать на сообщения
Вы не можете редактировать свои сообщения
Вы не можете удалять свои сообщения
Вы не можете голосовать в опросах
Вы не можете прикреплять файлы к сообщениям
Вы не можете скачивать файлы