Важное объявление!
У Нас Все раздачи мультитрекерные, при нуле пиров в релизах, можете смело вставать на закачку!
 
Автор Сообщение

HUNTER

Стаж:
4 года 4 месяца
Сообщений:
56829

Репутация: 101

[+] [-]
Вне форума [Профиль] [ЛС]

Солнечная империя. У края темноты / Solar Empire. Edge of Darkness
Дата/Год выпуска: 2001
Страна: США
Жанр: научно-популярный, космос
Продолжительность: 00:51:45
Перевод: Студийный (одноголосый закадровый)
Доп. инфо о переводе: Ярославцев
Описание: Наше путешествие пройдет от Солнца, мимо Земли и внутренних планет, на миллионы и миллионы миль. Здесь, где затаилась гиганты: Юпитер и Сатурн, Уран и Нептун, тут "холодно и далеко, что солнце - не более чем маленькой проблесковый маячок в обширных сумерках. В холодных далях Солнечной системы ... У края темноты!
Семпл http://sendfile.su/1144997
Эта версия длиннее, чем имеющиеся в более ранних раздачах. Не повтор.
качество: DVDRip
формат: AVI
Видео: Xvid 640x480 23.976fps 700kbps
Аудио: AC3 48000Hz mono 96kbps

MediaInfo

C:\Edge of Darkness.avi General Complete name : C:\Edge of Darkness.avi Format : AVI Format/Info : Audio Video Interleave File size : 298 MiB Duration : 51mn 44s Overall bit rate : 806 Kbps Writing application : VirtualDubMod 1.5.10.3 (build 2550/release) Writing library : VirtualDubMod build 2550/release Video #0 ID : 0 Format : MPEG-4 Visual Format profile : Advanced Simple@L5 Format settings, BVOP : 1 Format settings, QPel : No Format settings, GMC : No warppoints Format settings, Matrix : Default (H.263) Codec ID : XVID Codec ID/Hint : XviD Duration : 51mn 44s Bit rate : 700 Kbps Width : 640 pixels Height : 480 pixels Display aspect ratio : 4:3 Frame rate : 23.976 fps Color space : YUV Chroma subsampling : 4:2:0 Bit depth : 8 bits Scan type : Progressive Compression mode : Lossy Bits/(Pixel*Frame) : 0.095 Stream size : 259 MiB (87%) Writing library : XviD 1.2.1 (UTC 2008-12-04) Audio #1 ID : 1 Format : AC-3 Format/Info : Audio Coding 3 Mode extension : CM (complete main) Format settings, Endianness : Big Codec ID : 2000 Duration : 51mn 44s Bit rate mode : Constant Bit rate : 96.0 Kbps Channel(s) : 1 channel Channel positions : Front: C Sampling rate : 48.0 KHz Bit depth : 16 bits Compression mode : Lossy Stream size : 35.5 MiB (12%) Alignment : Split accross interleaves Interleave, duration : 42 ms (1.00 video frame) Interleave, preload duration : 500 ms

Скриншоты


_________________
Показать сообщения:    

Текущее время: Сегодня 09:24

Часовой пояс: GMT



Вы не можете начинать темы
Вы не можете отвечать на сообщения
Вы не можете редактировать свои сообщения
Вы не можете удалять свои сообщения
Вы не можете голосовать в опросах
Вы не можете прикреплять файлы к сообщениям
Вы не можете скачивать файлы