Важное объявление!
У Нас Все раздачи мультитрекерные, при нуле пиров в релизах, можете смело вставать на закачку!
 
Автор Сообщение

димитри37

Стаж:
3 года 8 месяцев
Сообщений:
1237

Репутация: 127

[+] [-]
Вне форума [Профиль] [ЛС]

Солдаты 17. Снова в строю
Год выпуска: 2013
Производство: Россия, ПЦ «Ан-Фильм»
Жанр: Комедия
Продолжительность: 00:45:00
Субтитры: нет
Режиссёр: Владимир Тумаев, Роман Зимин
В ролях: Алексей Маклаков, Вячеслав Гришечкин, Роман Богданов, Андрей Зибров, Анатолий Кощеев, Иван Моховиков, Анатолий Кот, Валерий Маркин, Александр Никольский (II), Виталий Герасимов, Юрий Воробьев, Виктор Балабанов, Владимир Стеклов, Артём Волков, Анна Антонова, Игорь Гаспарян, Егор Николаев (II), Руслан Сасин, Антон Аносов, Игорь Дорофеев, Ростислав Гулбис, Андрей Булатов, Максим Шишков, Екатерина Бурылева, Анатолий Горячев, Филипп Бажин
Описание: В этом сезоне в армию возвращается Бутонов и Папазогло, солдаты сталкиваются с финансовыми проблемами, а также появляются новые персонажи, которых играют известный ведущий Алексей Куличков (программа Такси, российский вариант) и известный актер Виктор Логинов (Букин).
Все раздачи сериала
Сэмпл: http://sendfile.su/803277
Релиз:
Качество: SATRip
Формат: AVI
Видео кодек: DivX
Аудио кодек: MP3
Видео: 720x400 (1.80:1), 25 fps, DivX Codec 5.x or 6.x, 1499 kbps avg, 0.21 bit/pixel
Аудио: MPEG Layer 3, 48 kHz, 2 ch, 128.00 kbps avg

MI

Общее
Полное имя : C:\Фильмы\Солдаты 17. Снова в строю (2013) SATRip\Soldaty.17.01.SATRip.avi
Формат : AVI
Формат/Информация : Audio Video Interleave
Размер файла : 561 Мбайт
Продолжительность : 47 м.
Общий поток : 1637 Кбит/сек
Программа кодирования : VirtualDubMod 1.5.10.2 (build 2540/release)
Библиотека кодирования : VirtualDub build 29808/release
Видео
Идентификатор : 0
Формат : MPEG-4 Visual
Параметр BVOP формата : 1
Параметр QPel формата : Нет
Параметр GMC формата : Без точки перехода
Параметр матрицы формата : Default (H.263)
Режим смешивания : Сжатый битовый поток
Идентификатор кодека : DX50
Идентификатор кодека/Подсказка : DivX 5
Продолжительность : 47 м.
Битрейт : 1499 Кбит/сек
Ширина : 720 пикселей
Высота : 400 пикселей
Соотношение сторон : 16:9
Частота кадров : 25,000 кадров/сек
Цветовое пространство : YUV
Субдискретизация насыщенности : 4:2:0
Битовая глубина : 8 бит
Тип развёртки : Прогрессивная
Метод сжатия : С потерями
Бит/(Пиксели*Кадры) : 0.208
Размер потока : 514 Мбайт (92%)
Библиотека кодирования : DivX 6.8.5 (UTC 2009-08-20)
Аудио
Идентификатор : 1
Формат : MPEG Audio
Версия формата : Version 1
Профиль формата : Layer 3
Режим : Joint stereo
Идентификатор кодека : 55
Идентификатор кодека/Подсказка : MP3
Продолжительность : 47 м.
Вид битрейта : Постоянный
Битрейт : 128 Кбит/сек
Каналы : 2 канала
Частота : 48,0 КГц
Метод сжатия : С потерями
Размер потока : 43,9 Мбайт (8%)
Выравнивание : Соединение по промежуткам
Продолжительность промежутка : 40 мс. (1,00 видеокадр)
Время предзагрузки промежутка : 504 мс.
Библиотека кодирования : LAME3.90.3
Показать сообщения:    

Текущее время: Сегодня 06:00

Часовой пояс: GMT



Вы не можете начинать темы
Вы не можете отвечать на сообщения
Вы не можете редактировать свои сообщения
Вы не можете удалять свои сообщения
Вы не можете голосовать в опросах
Вы не можете прикреплять файлы к сообщениям
Вы не можете скачивать файлы