Важное объявление!
У Нас Все раздачи мультитрекерные, при нуле пиров в релизах, можете смело вставать на закачку!
 
Автор Сообщение

HUNTER

Стаж:
4 года 4 месяца
Сообщений:
56809

Репутация: 101

[+] [-]
Вне форума [Профиль] [ЛС]

Солдат Джейн / G.I. Jane
«Failure is not an option.»
-
Страна: США, Великобритания
Студия: «INTERMEDIA»
Жанр: Боевик, Драма
Год выпуска: 1997
Продолжительность: 02:00:21
Перевод: Профессиональный (многоголосый закадровый)
Cубтитры: русские
Оригинальная аудиодорожка: английский-Режиссер: Ридли Скотт / Ridley Scott
В ролях: Деми Мур /Demi Moore/, Вигго Мортенсен /Viggo Mortensen/, Энн Бэнкрофт /Anne Bancroft/, Дэниэл Фон Барген /Daniel Von Bargen/,
Джейсон Бег /Jason Beghe/, Люсинда Дженни /Lucinda Jenney.
Описание: Лейтенант Джордан О`Нил становится первой женщиной, направленной для прохождения элитной программы в центре подготовки «Каталано» во Флориде.
Лучшие представители спецподразделений армии США отбираются сюда. 60 процентов из них не выдерживают в этом аду.
Школа выживания и уничтожения… Ты должна выстоять, О`Нил!-Доп. информация: ### Этот DVD был здесь на треккере
Бонусы: Смотрите на DVD
Меню: Cтатичное, озвученное, разбивка по эпизодам есть

Сэмпл: Скачать
Тип релиза: DVD9
Контейнер: DVD-Video
Видео: MPEG, PAL 4:3 (720x576) VBR, ~6995 Кбит/сек
Аудио: Dolby AC3, 6 ch, 448 Кбит/сек, 48,0 КГц -(Русская) Многоголосый закадровый
Аудио 2: Dolby AC3, 6 ch, 448 Кбит/сек, 48,0 КГц -(Английская) Оригинал-

MediaInfo

Полное имя : W:\Зарубежное кино (DVD)\DVD9\Солдат Джейн. G.I. Jane. 1997\Soldat.Dzheyn.1997.DVD-9\VIDEO_TS\VTS_01_1.VOB
Формат : MPEG-PS
Размер файла : 1023 Мбайт
Продолжительность : 17 м.
Режим общего битрейта : Переменный
Общий поток : 8051 Кбит/сек
Видео
Идентификатор : 224 (0xE0)
Формат : MPEG Video
Версия формата : Version 2
Профиль формата : Main@Main
Параметр BVOP формата : Да
Параметр матрицы формата : Выборочная
Параметр GOP формата : Variable
Format_Settings_PictureStructure : Frame
Продолжительность : 17 м.
Вид битрейта : Переменный
Битрейт : 6995 Кбит/сек
Максимальный битрейт : 8000 Кбит/сек
Ширина : 720 пикселей
Высота : 576 пикселей
Соотношение сторон : 4:3
Частота кадров : 25,000 кадров/сек
Стандарт вещания : PAL
Цветовое пространство : YUV
Субдискретизация насыщенности : 4:2:0
Битовая глубина : 8 бит
Тип развёртки : Чересстрочная
Порядок развёртки : Верхнее поле первое
Метод сжатия : С потерями
Бит/(Пиксели*Кадры) : 0.675
Временной код первого кадра : 00:00:00:00
Оригинал временного кода : Group of pictures header
Размер потока : 889 Мбайт (87%)
Основные цвета : BT.601 NTSC
Характеристики трансфера : BT.601
Коэффициенты матрицы : BT.601
Аудио #1
Идентификатор : 189 (0xBD)-128 (0x80)
Формат : AC-3
Формат/Информация : Audio Coding 3
Расширение режима : CM (complete main)
Параметр Endianness формата : Big
Режим смешивания : DVD-Video
Продолжительность : 17 м.
Вид битрейта : Постоянный
Битрейт : 448 Кбит/сек
Каналы : 6 каналов
Расположение каналов : Front: L C R, Side: L R, LFE
Частота : 48,0 КГц
Битовая глубина : 16 бит
Метод сжатия : С потерями
Размер потока : 56,9 Мбайт (6%)
Аудио #2
Идентификатор : 189 (0xBD)-129 (0x81)
Формат : AC-3
Формат/Информация : Audio Coding 3
Расширение режима : CM (complete main)
Параметр Endianness формата : Big
Режим смешивания : DVD-Video
Продолжительность : 17 м.
Вид битрейта : Постоянный
Битрейт : 448 Кбит/сек
Каналы : 6 каналов
Расположение каналов : Front: L C R, Side: L R, LFE
Частота : 48,0 КГц
Битовая глубина : 16 бит
Метод сжатия : С потерями
Размер потока : 56,9 Мбайт (6%)
Текст
Идентификатор : 189 (0xBD)-32 (0x20)
Формат : RLE
Формат/Информация : Run-length encoding
Режим смешивания : DVD-Video
Меню
****************************************************************
Title: Soldat.Dzheyn.1997.DVD9
Size: 7.08 Gb ( 7 423 232,00 KBytes ) - DVD-9
Enabled regions: 1, 2, 3, 4, 5, 6, 7, 8
VTS_01 :
Play Length: 02:00:21
Video: PAL 4:3 (720x576) VBR
Audio:
Russian (Dolby AC3, 6 ch)
English (Dolby AC3, 6 ch)
Subtitles:
Russian
VTS_02 :
Play Length: 00:06:00
Video: PAL 4:3 (720x576) VBR
Audio:
Russian (Dolby AC3, 2 ch)
Russian (Dolby AC3, 2 ch)
* Menus Information *
VIDEO_TS Menu
Video:
PAL 4:3 (720x576) VBR
Audio:
Not specified (Dolby AC3, 2 ch)
Russian Language Unit :
Title Menu
VTS_01 Menu
Video:
PAL 4:3 (720x576) VBR
Audio:
Not specified (Dolby AC3, 2 ch)
Russian Language Unit :
Root Menu
VTS_02 Menu
Video:
PAL 4:3 (720x576) VBR
Audio:
Not specified (Dolby AC3, 1 ch)
Russian Language Unit :
Root Menu
Chapter (PTT) Menu

Скриншоты меню

Скриншоты



-

_________________
Показать сообщения:    

Текущее время: Сегодня 19:16

Часовой пояс: GMT



Вы не можете начинать темы
Вы не можете отвечать на сообщения
Вы не можете редактировать свои сообщения
Вы не можете удалять свои сообщения
Вы не можете голосовать в опросах
Вы не можете прикреплять файлы к сообщениям
Вы не можете скачивать файлы