Важное объявление!
У Нас Все раздачи мультитрекерные, при нуле пиров в релизах, можете смело вставать на закачку!
 
Автор Сообщение

HUNTER

Стаж:
4 года 4 месяца
Сообщений:
56719

Репутация: 101

[+] [-]
Вне форума [Профиль] [ЛС]

Сокровище нации: Книга тайн / National Treasure: Book of Secrets
Страна: США
Студия: Walt Disney Pictures & Jerry Bruckheimer Films
Жанр: Приключения
Год выпуска: 2007
Продолжительность: 02:04:15
Перевод 1: Профессиональный (дублированный) |Дубляж, Blu-ray CEE_[Невафильм]_2007г|
Перевод 2: Профессиональный (многоголосый закадровый) |Superbit|
Перевод 3: Авторский (одноголосый закадровый) |Королев, Владимир|
Перевод 4: Авторский (одноголосый закадровый) |Гаврилов, Андрей Юрьевич|
Cубтитры: русские, английские
Оригинальная аудиодорожка: английский
Режиссер: Джон Тёртелтауб / Jon Turteltaub
В ролях: Николас Кейдж / Nicolas Cage (Benjamin Franklin Gates), Дайан Крюгер / Diane Kruger (Abigail Chase), Джастин Барта / Justin Bartha (Riley Poole), Джон Войт / Jon Voight (Patrick Gates), Хелен Миррен / Helen Mirren (Emily Appleton), Эд Харрис / Ed Harris (Mitch Wilkinson), Харви Кейтель / Harvey Keitel (Sadusky), Брюс Гринвуд / Bruce Greenwood (The President), Тай Бурелл / Ty Burrell (Connor), Майкл Мейзе / Michael Maize (Daniel), Тимоти В. Мерфи / Timothy V. Murphy (Seth), Алисия Коппола / Alicia Coppola (FBI Agent Spellman)
Описание: Охотник за сокровищами Бен Гейтс, вооружившись поддержкой любимой женщины, верного друга Райли, а также своих родителей, отправляется на поиски затерянного золотого города. Только пройдя сквозь череду невероятных и увлекательных приключений, Бену удастся очистить имя своего предка от обвинений в убийстве Авраама Линкольна. Но не все так просто — параллельные поиски города ведет и некий Митч Уилкинсон, готовый на все ради достижения цели.
Сэмпл: https://yadi.sk/i/lrVIUCRwe7kdM
Тип релиза: BDRemux 1080p
Контейнер: MKV
Видео: 1920x1080 at 23.976 fps, MPEG-4 AVC, ~23245 kbps avg
Аудио 1: Russian: 48 kHz, AC3, 3/2 (L,C,R,l,r) + LFE ch, ~640.00 kbps avg |Дубляж, Blu-ray CEE_[Невафильм]_2007г|
Аудио 2: Russian: 48 kHz, AC3, 3/2 (L,C,R,l,r) + LFE ch, ~448.00 kbps avg |Superbit|
Аудио 3: Russian: 48 kHz, 16-bit, DTS-HD MA 5.1, ~1961.00 kbps avg (DTS Core: 5.1 / 48 kHz / 768 kbps / 16-bit) |Королев, Владимир|
Аудио 4: Russian: 48 kHz, 16-bit, DTS-HD MA 5.1, ~1961.00 kbps avg (DTS Core: 5.1 / 48 kHz / 768 kbps / 16-bit) |Гаврилов, Андрей Юрьевич|
Аудио 5: English: 48 kHz, 16-bit, DTS-HD MA 5.1, ~2284.00 kbps avg (DTS Core: 5.1 / 48 kHz / 1509 kbps / 16-bit) |ORIGINAL|
Аудио 6: English: 48 kHz, AC3, 2/0 (L,R) ch, ~192.00 kbps avg |Commentary with Director John Turtletaub and Actor Jon Voight|
Формат субтитров: softsub (SRT)

MediaInfo

Общее
Уникальный идентификатор : 179115602695176175504316904587950645252 (0x86C06907B3809047A497FA40F4BD6004)
Полное имя : C:\V.S.P\MOVIE\Nicolas Cage_Nicolas Kim Coppola_\National Treasure_Book of Secrets_2007г\National Treasure_Book of Secrets_2007г_Nicolas Cage_[Nicolas Kim Coppola]_.mkv
Формат : Matroska
Версия формата : Version 4 / Version 2
Размер файла : 26,8 Гбайт
Продолжительность : 2 ч. 4 м.
Режим общего битрейта : Переменный
Общий поток : 30,8 Мбит/сек
Название фильма : National Treasure_Book of Secrets_2007г_Nicolas Cage_[Nicolas Kim Coppola]_
Дата кодирования : UTC 2015-01-19 19:18:13
Программа кодирования : mkvmerge v6.9.1 ('Blue Panther') 64bit built on Apr 18 2014 18:23:38
Библиотека кодирования : libebml v1.3.0 + libmatroska v1.4.1
Видео
Идентификатор : 1
Формат : AVC
Формат/Информация : Advanced Video Codec
Профиль формата : High@L4.1
Параметр CABAC формата : Да
Параметр ReFrames формата : 2 кадра
Параметр GOP формата : M=1, N=10
Идентификатор кодека : V_MPEG4/ISO/AVC
Продолжительность : 2 ч. 4 м.
Вид битрейта : Переменный
Ширина : 1920 пикселей
Высота : 1080 пикселей
Соотношение сторон : 16:9
Режим частоты кадров : Постоянный
Частота кадров : 23,976 кадра/сек
Цветовое пространство : YUV
Субдискретизация насыщенности : 4:2:0
Битовая глубина : 8 бит
Тип развёртки : Прогрессивная
Заголовок : National Treasure_Book of Secrets_2007г_Nicolas Cage_[Nicolas Kim Coppola]_
Язык : English
Default : Да
Forced : Нет
Аудио #1
Идентификатор : 2
Формат : AC-3
Формат/Информация : Audio Coding 3
Расширение режима : CM (complete main)
Параметр Endianness формата : Big
Идентификатор кодека : A_AC3
Продолжительность : 2 ч. 4 м.
Вид битрейта : Постоянный
Битрейт : 640 Кбит/сек
Каналы : 6 каналов
Расположение каналов : Front: L C R, Side: L R, LFE
Частота : 48,0 КГц
Битовая глубина : 16 бит
Метод сжатия : С потерями
Размер потока : 570 Мбайт (2%)
Заголовок : |Дубляж, Blu-ray EUR_[Невафильм]_2007г|
Язык : Russian
Default : Да
Forced : Нет
Аудио #2
Идентификатор : 3
Формат : AC-3
Формат/Информация : Audio Coding 3
Расширение режима : CM (complete main)
Параметр Endianness формата : Big
Идентификатор кодека : A_AC3
Продолжительность : 2 ч. 4 м.
Вид битрейта : Постоянный
Битрейт : 448 Кбит/сек
Каналы : 6 каналов
Расположение каналов : Front: L C R, Side: L R, LFE
Частота : 48,0 КГц
Битовая глубина : 16 бит
Метод сжатия : С потерями
Размер потока : 399 Мбайт (1%)
Заголовок : |MVO_Superbit|
Язык : Russian
Default : Нет
Forced : Нет
Аудио #3
Идентификатор : 4
Формат : DTS
Формат/Информация : Digital Theater Systems
Профиль формата : MA / Core
Режим : 16
Параметр Endianness формата : Big
Идентификатор кодека : A_DTS
Продолжительность : 2 ч. 4 м.
Вид битрейта : Переменный
Битрейт : Неизвестно / 768 Кбит/сек
Каналы : 6 каналов
Расположение каналов : Front: L C R, Side: L R, LFE
Частота : 48,0 КГц
Битовая глубина : 16 бит
Метод сжатия : Без потерь / Lossy
Заголовок : |Королев, Владимир|
Язык : Russian
Default : Нет
Forced : Нет
Аудио #4
Идентификатор : 5
Формат : DTS
Формат/Информация : Digital Theater Systems
Профиль формата : MA / Core
Режим : 16
Параметр Endianness формата : Big
Идентификатор кодека : A_DTS
Продолжительность : 2 ч. 4 м.
Вид битрейта : Переменный
Битрейт : Неизвестно / 768 Кбит/сек
Каналы : 6 каналов
Расположение каналов : Front: L C R, Side: L R, LFE
Частота : 48,0 КГц
Битовая глубина : 16 бит
Метод сжатия : Без потерь / Lossy
Заголовок : |Гаврилов, Андрей Юрьевич|
Язык : Russian
Default : Нет
Forced : Нет
Аудио #5
Идентификатор : 6
Формат : DTS
Формат/Информация : Digital Theater Systems
Профиль формата : MA / Core
Режим : 16
Параметр Endianness формата : Big
Идентификатор кодека : A_DTS
Продолжительность : 2 ч. 4 м.
Вид битрейта : Переменный
Битрейт : Неизвестно / 1509 Кбит/сек
Каналы : 6 каналов
Расположение каналов : Front: L C R, Side: L R, LFE
Частота : 48,0 КГц
Битовая глубина : 16 бит
Метод сжатия : Без потерь / Lossy
Заголовок : |ORIGINAL|
Язык : English
Default : Нет
Forced : Нет
Аудио #6
Идентификатор : 7
Формат : AC-3
Формат/Информация : Audio Coding 3
Профиль формата : Dolby Digital
Расширение режима : CM (complete main)
Параметр Endianness формата : Big
Идентификатор кодека : A_AC3
Продолжительность : 2 ч. 4 м.
Вид битрейта : Постоянный
Битрейт : 192 Кбит/сек
Каналы : 2 канала
Расположение каналов : Front: L R
Частота : 48,0 КГц
Битовая глубина : 16 бит
Метод сжатия : С потерями
Размер потока : 171 Мбайт (1%)
Заголовок : |Commentary with Director John Turtletaub and Actor Jon Voight|
Язык : English
Default : Нет
Forced : Нет
Текст #1
Идентификатор : 8
Формат : UTF-8
Идентификатор кодека : S_TEXT/UTF8
Идентификатор кодека/Информация : UTF-8 Plain Text
Заголовок : forced
Язык : Russian
Default : Да
Forced : Нет
Текст #2
Идентификатор : 9
Формат : UTF-8
Идентификатор кодека : S_TEXT/UTF8
Идентификатор кодека/Информация : UTF-8 Plain Text
Заголовок : full
Язык : Russian
Default : Нет
Forced : Нет
Текст #3
Идентификатор : 10
Формат : UTF-8
Идентификатор кодека : S_TEXT/UTF8
Идентификатор кодека/Информация : UTF-8 Plain Text
Заголовок : commentary
Язык : Russian
Default : Нет
Forced : Нет
Текст #4
Идентификатор : 11
Формат : UTF-8
Идентификатор кодека : S_TEXT/UTF8
Идентификатор кодека/Информация : UTF-8 Plain Text
Заголовок : full
Язык : English
Default : Нет
Forced : Нет
Меню
00:00:00.000 : :The War Is Over
00:04:59.340 : :The Missing Page
00:08:27.215 : :Breaking In
00:16:55.723 : :The Debt That All Men Pay
00:22:01.945 : :The Lady's Clue
00:26:03.395 : :Making A Scene At The Palace
00:36:47.038 : :The Streets Of London
00:43:02.913 : :Meeting Dr. Appleton
00:50:14.011 : :A Date At The White House
00:55:27.907 : :Riley's Theory
01:00:01.389 : :Happy Birthday, Mr. President
01:11:22.987 : :The Book Of Secrets
01:20:14.017 : :Another Translation
01:24:42.744 : :An Island Of Stone
01:30:41.269 : :Only One Way Out
01:40:07.334 : :The City Of Gold
01:47:17.889 : :Escaping Cibola
01:57:20.533 : :End Credits

Скриншоты


Цитата:
Цитата:

за исходник спасибо огромное хдклуб.за работу со звуком спасибо Bloodymetall.За предоставленный постер к раздаче спасибо огромное Нурмухаметову, Данису Василовичу.

_________________
Показать сообщения:    

Текущее время: Сегодня 22:53

Часовой пояс: GMT



Вы не можете начинать темы
Вы не можете отвечать на сообщения
Вы не можете редактировать свои сообщения
Вы не можете удалять свои сообщения
Вы не можете голосовать в опросах
Вы не можете прикреплять файлы к сообщениям
Вы не можете скачивать файлы