Важное объявление!
У Нас Все раздачи мультитрекерные, при нуле пиров в релизах, можете смело вставать на закачку!
 
Автор Сообщение

HUNTER

Стаж:
4 года 4 месяца
Сообщений:
56765

Репутация: 101

[+] [-]
Вне форума [Профиль] [ЛС]

Сокровища О.К. -
Год выпуска: 2013
Страна: Россия
Жанр: приключения, комедия
Продолжительность: 01:44:00
Перевод: Оригинал [Лицензия]
Субтитры: Нет -В ролях: Алексей Воробьёв, Эльвира Ибрагимова, Мария Кожевникова, Байбулат Батуллин, Гоша Куценко, Сергей Шакуров, Виктор Вержбицкий, Ольга Волкова, Светлана Чуйкина, Сергей Никоненко
Режиссёр: Дмитрий Коробкин - -Во время осады Казани Иваном Грозным прекрасная ханша Сююмбике приказывает спрятать несметные богатства в озере Кабан. И вот уже 500 лет судьба клада неизвестна... В наши дни тайна сокровищ открывается обаятельному ловеласу Кириллу, и он устремляется на поиски заветного клада. На пути к богатствам Кирилл знакомится с неприступной красавицей Гулей, которая совершенно не собирается попадать под влияние чар авантюриста. Но совместные похождения и постоянно преследующая опасность заставляют молодых людей иначе посмотреть друг на друга. И неужели только сокровища могут стать главной наградой за опасные приключения?!
-Качество: BDRip 1080p
Формат: MKV
Видео кодек: AVC
Аудио кодек: DTS, AC-3
Видео: AVC, 1920x1080, 10000 Кбит/сек, 25.000 кадр/сек
Аудио 1: DTS, 1509 Кбит/сек, 6 канала(ов), 48,0 КГц (Russian)
Аудио 2: AC-3, 448 Кбит/сек, 6 канала(ов), 48,0 КГц (Russian)-

Рейтинг:

Рейтинг:

MediaInfo:

General
Unique ID : 216171157998892109874936196391980437163 (0xA2A10CF61B5CE755A71EAF8679870EAB)
Complete name : C:\Users\Fr1sk\Desktop\Рипы\Сокровища О.К. BDRip 1080p..mkv
Format : Matroska
Format version : Version 2
File size : 8.69 GiB
Duration : 1h 44mn
Overall bit rate : 12.0 Mbps
Movie name : CMEGRoup
Encoded date : UTC 2013-11-28 09:36:49
Writing application : mkvmerge v6.3.0 ('You can't stop me!') built on Jun 28 2013 20:09:41
Writing library : libebml v1.3.0 + libmatroska v1.4.0
Video
ID : 1
Format : AVC
Format/Info : Advanced Video Codec
Format profile : [url=mailto:High@L4.1]High@L4.1[/url]
Format settings, CABAC : Yes
Format settings, ReFrames : 4 frames
Codec ID : V_MPEG4/ISO/AVC
Duration : 1h 44mn
Bit rate : 10 000 Kbps
Width : 1 920 pixels
Height : 1 080 pixels
Display aspect ratio : 16:9
Frame rate mode : Constant
Frame rate : 25.000 fps
Color space : YUV
Chroma subsampling : 4:2:0
Bit depth : 8 bits
Scan type : Progressive
Bits/(Pixel*Frame) : 0.193
Stream size : 7.09 GiB (82%)
Writing library : x264 core 133 r2334 a3ac64b
Encoding settings : cabac=1 / ref=4 / deblock=1:-3:-3 / analyse=0x3:0x113 / me=umh / subme=11 / psy=1 / psy_rd=1.00:0.00 / mixed_ref=1 / me_range=48 / chroma_me=1 / trellis=2 / 8x8dct=1 / cqm=0 / deadzone=21,11 / fast_pskip=1 / chroma_qp_offset=-2 / threads=12 / lookahead_threads=1 / sliced_threads=0 / nr=0 / decimate=1 / interlaced=0 / bluray_compat=0 / constrained_intra=0 / bframes=5 / b_pyramid=2 / b_adapt=1 / b_bias=0 / direct=2 / weightb=1 / open_gop=0 / weightp=2 / keyint=250 / keyint_min=25 / scenecut=40 / intra_refresh=0 / rc_lookahead=40 / rc=2pass / mbtree=1 / bitrate=10000 / ratetol=1.0 / qcomp=0.60 / qpmin=10 / qpmax=51 / qpstep=4 / cplxblur=20.0 / qblur=0.5 / vbv_maxrate=62500 / vbv_bufsize=78125 / nal_hrd=none / ip_ratio=1.40 / aq=1:1.00 / zones=150096,156005,q=40
Language : English
Default : Yes
Forced : No
Audio #1
ID : 2
Format : DTS
Format/Info : Digital Theater Systems
Mode : 16
Format settings, Endianness : Big
Codec ID : A_DTS
Duration : 1h 44mn
Bit rate mode : Constant
Bit rate : 1 509 Kbps
Channel(s) : 6 channels
Channel positions : Front: L C R, Side: L R, LFE
Sampling rate : 48.0 KHz
Bit depth : 16 bits
Compression mode : Lossy
Stream size : 1.10 GiB (13%)
Language : Russian
Default : Yes
Forced : No
Audio #2
ID : 3
Format : AC-3
Format/Info : Audio Coding 3
Mode extension : CM (complete main)
Format settings, Endianness : Big
Codec ID : A_AC3
Duration : 1h 44mn
Bit rate mode : Constant
Bit rate : 448 Kbps
Channel(s) : 6 channels
Channel positions : Front: L C R, Side: L R, LFE
Sampling rate : 48.0 KHz
Bit depth : 16 bits
Compression mode : Lossy
Stream size : 333 MiB (4%)
Language : Russian
Default : No
Forced : No
Menu
00:00:00.000 : :Chapter 01
00:08:51.400 : :Chapter 02
00:14:23.440 : :Chapter 03
00:22:27.359 : :Chapter 04
00:29:03.200 : :Chapter 05
00:34:40.960 : :Chapter 06
00:40:35.239 : :Chapter 07
00:45:04.080 : :Chapter 08
00:53:17.000 : :Chapter 09
00:59:17.560 : :Chapter 10
01:05:56.800 : :Chapter 11
01:11:11.200 : :Chapter 12
01:20:03.760 : :Chapter 13
01:30:31.479 : :Chapter 14
01:35:31.800 : :Chapter 15

Скриншоты:


_________________
Показать сообщения:    

Текущее время: Сегодня 06:15

Часовой пояс: GMT



Вы не можете начинать темы
Вы не можете отвечать на сообщения
Вы не можете редактировать свои сообщения
Вы не можете удалять свои сообщения
Вы не можете голосовать в опросах
Вы не можете прикреплять файлы к сообщениям
Вы не можете скачивать файлы