Важное объявление!
У Нас Все раздачи мультитрекерные, при нуле пиров в релизах, можете смело вставать на закачку!
 
Автор Сообщение

HUNTER

Стаж:
4 года 4 месяца
Сообщений:
56772

Репутация: 101

[+] [-]
Вне форума [Профиль] [ЛС]

Содовый крекер / Soda Cracker-
Страна: США
Студия: Epic Productions, Po' Boy Productions
Жанр: боевик
Год выпуска: 1989
Продолжительность: 01:30:40-Перевод: Профессиональный (двухголосый закадровый) НТВ+
Cубтитры: нет
Оригинальная аудиодорожка: английский-Режиссер: Фред Уильямсон / Fred Williamson
В ролях: Фред Уильямсон, Мод Адамс, Бо Свенсон, Филлис Хаймэн, Д. Р. Джонс, Фрэнк Пеш, Джули Крегг...- | Релиз: -Описание: В полицейском управлении Чикаго уже много лет работают два напарника и друга, Сода по кличке «Крекер», прозванный так за любовь к этому лакомству, и Фил. Во время бейсбольного матча, на котором должен был присутствовать губернатор, происходит ужасное событие. Снайпер, который должен был убить губернатора, убивает Фила, и Крекер, начинает искать убийцу своего друга. Следы приводят его в родное управление полиции Чикаго.-Семпл: http://sendfile.su/1135847-Тип релиза: HDTV 1080i
Контейнер: TS
Видео: 1920x1080i (16:9), 25.000 fps, AVC, ~5663 Kbps, 0.109 bits/pixel
Аудио 1: Русский, 48.0 KHz, MPEG-1 Audio layer 2, 2 ch, 192 kbps
Аудио 2: English, 48.0 KHz, MPEG-1 Audio layer 2, 2 ch, 192 kbps

MediaInfo

GeneralID : 1 (0x1)Complete name : Soda Cracker 1989 MGMHD 1080i.rus.eng.tsFormat : MPEG-TSFile size : 4.03 GiBDuration : 1h 30mnOverall bit rate mode : VariableOverall bit rate : 6 365 KbpsMaximum Overall bit rate : 35.5 Mbps
VideoID : 4113 (0x1011)Menu ID : 1 (0x1)Format : AVCFormat/Info : Advanced Video CodecFormat profile : Main@L4Format settings, CABAC : YesFormat settings, ReFrames : 4 framesCodec ID : 27Duration : 1h 30mnBit rate : 5 663 KbpsWidth : 1 920 pixelsHeight : 1 080 pixelsDisplay aspect ratio : 16:9Frame rate : 25.000 fpsStandard : ComponentColor space : YUVChroma subsampling : 4:2:0Bit depth : 8 bitsScan type : InterlacedScan order : Top Field FirstBits/(Pixel*Frame) : 0.109Stream size : 3.59 GiB (89%)Color range : LimitedColor primaries : BT.709Transfer characteristics : BT.709Matrix coefficients : BT.709
Audio #1ID : 4352 (0x1100)Menu ID : 1 (0x1)Format : MPEG AudioFormat version : Version 1Format profile : Layer 2Codec ID : 4Duration : 1h 30mnBit rate mode : ConstantBit rate : 192 KbpsChannel(s) : 2 channelsSampling rate : 48.0 KHzCompression mode : LossyStream size : 125 MiB (3%)Language : Russian
Audio #2ID : 4353 (0x1101)Menu ID : 1 (0x1)Format : MPEG AudioFormat version : Version 1Format profile : Layer 2Codec ID : 4Duration : 1h 30mnBit rate mode : ConstantBit rate : 192 KbpsChannel(s) : 2 channelsSampling rate : 48.0 KHzCompression mode : LossyStream size : 125 MiB (3%)Language : English

Скриншоты


_________________
Показать сообщения:    

Текущее время: Сегодня 16:09

Часовой пояс: GMT



Вы не можете начинать темы
Вы не можете отвечать на сообщения
Вы не можете редактировать свои сообщения
Вы не можете удалять свои сообщения
Вы не можете голосовать в опросах
Вы не можете прикреплять файлы к сообщениям
Вы не можете скачивать файлы