Важное объявление!
У Нас Все раздачи мультитрекерные, при нуле пиров в релизах, можете смело вставать на закачку!
 
Автор Сообщение

HUNTER

Стаж:
4 года 4 месяца
Сообщений:
56829

Репутация: 101

[+] [-]
Вне форума [Профиль] [ЛС]

Собутыльники / Drinking Buddies
«A comedy about knowing when to say when»-
Страна: США
Студия: Burn Later Productions
Жанр: драма, мелодрама, комедия
Год выпуска: 2013
Продолжительность: 01:30:17-Перевод: Профессиональный (многоголосый закадровый) R2
Cубтитры: Russian (Notabenoid), English (SDH)
Оригинальная аудиодорожка: английский-Режиссер: Джо Сванберг / Joe Swanberg
В ролях: Оливия Уайлд, Джейк Джонсон, Анна Кендрик, Рон Ливингстон, Тай Уэст, Джейсон Судейкис, Майк Брюн, Фрэнк В. Росс, Майкл Гертнер, Кристин Дэвис
Описание: Люк и Кейт сотрудники чикагского пивоваренного завода, где они проводят свои дни, выпивая и флиртуя. Они идеально подходят друг другу, но вот только они оба уже состоят в отношениях...
Рип от: TayTO
Сэмпл: sendfile→
Тип релиза: BDRip 720p
Контейнер: MKV
Видео: 1280x546 at 23.976 fps, x264@L4.1, ~6500 kbps
Аудио: 48 kHz/16-bit, DTS, 3/2 (L,C,R,l,r) + LFE ch, ~1536.00 kbps |Многоголосый закадровый, R2|
Аудио 2: 48 kHz, DTS, 3/2 (L,C,R,l,r) + LFE ch, ~1536.00 kbps |Оригинал|
Аудио 3: 48 kHz, AC3, 2/0 (L,R) ch, ~192.00 kbps avg |Commentary with Writer/Director Joe Swanberg, Producers Andrea Roa and Alicia Van Couvering|

MediaInfo

Полное имя : Drinking.Buddies.2013.720p.BluRay.DTS.Rus.2xEng.HDCLUB.mkv
Формат : Matroska
Версия формата : Version 2
Размер файла : 6.13 GiB
Продолжительность : 1h 30mn
Общий поток : 9 709 Kbps
Название фильма : Drinking Buddies (2013) - Release for HDCLUB
Дата кодирования : UTC 2014-01-19 13:23:22
Программа кодирования : mkvmerge v3.4.0 ('Rapunzel') built on May 15 2010 09:38:20
Библиотека кодирования : libebml v0.8.0 + libmatroska v0.9.0
Video
Идентификатор : 1
Формат : AVC
Формат/Информация : Advanced Video Codec
Профиль формата : High@L4.1
Параметр CABAC формата : Yes
Параметр ReFrames формата : 11 frames
Идентификатор кодека : V_MPEG4/ISO/AVC
Продолжительность : 1h 30mn
Битрейт : 6 500 Kbps
Ширина : 1 280 pixels
Высота : 546 pixels
Соотношение сторон : 2.35:1
Режим частоты кадров : Constant
Частота кадров : 23.976 fps
Цветовое пространство : YUV
Субдискретизация насыщенности : 4:2:0
Битовая глубина : 8 bits
Тип развёртки : Progressive
Бит/(Пиксели*Кадры) : 0.388
Размер потока : 3.98 GiB (65%)
Заголовок : Drinking Buddies (2013) - Release for HDCLUB
Библиотека кодирования : x264 core 140 r2377 1ca7bb9
Настройки программы : cabac=1 / ref=11 / deblock=1:-3:-3 / analyse=0x3:0x133 / me=tesa / subme=11 / psy=1 / psy_rd=1.10:0.00 / mixed_ref=1 / me_range=16 / chroma_me=1 / trellis=2 / 8x8dct=1 / cqm=0 / deadzone=21,11 / fast_pskip=0 / chroma_qp_offset=-2 / threads=12 / lookahead_threads=2 / sliced_threads=0 / nr=0 / decimate=1 / interlaced=0 / bluray_compat=0 / constrained_intra=0 / bframes=7 / b_pyramid=2 / b_adapt=2 / b_bias=0 / direct=3 / weightb=1 / open_gop=0 / weightp=2 / keyint=250 / keyint_min=23 / scenecut=40 / intra_refresh=0 / rc=2pass / mbtree=0 / bitrate=6500 / ratetol=1.0 / qcomp=0.65 / qpmin=0 / qpmax=69 / qpstep=4 / cplxblur=20.0 / qblur=0.5 / ip_ratio=1.40 / pb_ratio=1.30 / aq=1:0.80
Язык : English
Default : Yes
Forced : No
Коэффициенты матрицы : BT.709
Audio #1
Идентификатор : 2
Формат : DTS
Формат/Информация : Digital Theater Systems
Режим : 16
Параметр Endianness формата : Big
Идентификатор кодека : A_DTS
Продолжительность : 1h 30mn
Вид битрейта : Constant
Битрейт : 1 509 Kbps
Каналы : 6 channels
Расположение каналов : Front: L C R, Side: L R, LFE
Частота : 48.0 KHz
Битовая глубина : 16 bits
Метод сжатия : Lossy
Размер потока : 976 MiB (16%)
Заголовок : DTS 5.1 @ 1536 kbps - MVO, R2
Язык : Russian
Default : Yes
Forced : No
Audio #2
Идентификатор : 3
Формат : DTS
Формат/Информация : Digital Theater Systems
Режим : 16
Параметр Endianness формата : Big
Идентификатор кодека : A_DTS
Продолжительность : 1h 30mn
Вид битрейта : Constant
Битрейт : 1 509 Kbps
Каналы : 6 channels
Расположение каналов : Front: L C R, Side: L R, LFE
Частота : 48.0 KHz
Битовая глубина : 24 bits
Метод сжатия : Lossy
Задержка видео : 11ms
Размер потока : 976 MiB (16%)
Заголовок : DTS 5.1 @ 1536 kbps
Язык : English
Default : No
Forced : No
Audio #3
Идентификатор : 4
Формат : AC-3
Формат/Информация : Audio Coding 3
Расширение режима : CM (complete main)
Параметр Endianness формата : Big
Идентификатор кодека : A_AC3
Продолжительность : 1h 30mn
Вид битрейта : Constant
Битрейт : 192 Kbps
Каналы : 2 channels
Расположение каналов : Front: L R
Частота : 48.0 KHz
Битовая глубина : 16 bits
Метод сжатия : Lossy
Размер потока : 124 MiB (2%)
Заголовок : AC3 2.0 @ 192 kbps - Commentary with Writer/Director Joe Swanberg, Producers Andrea Roa and Alicia Van Couvering
Язык : English
Default : No
Forced : No
Text #1
Идентификатор : 5
Формат : UTF-8
Идентификатор кодека : S_TEXT/UTF8
Идентификатор кодека/Информация : UTF-8 Plain Text
Заголовок : Notabenoid
Язык : Russian
Default : No
Forced : No
Text #2
Идентификатор : 6
Формат : UTF-8
Идентификатор кодека : S_TEXT/UTF8
Идентификатор кодека/Информация : UTF-8 Plain Text
Заголовок : SDH
Язык : English
Default : No
Forced : No
Menu
00:00:00.000 : en:00:00:00.000
00:07:19.439 : en:00:07:19.439
00:15:21.546 : en:00:15:21.546
00:21:17.067 : en:00:21:17.067
00:30:13.270 : en:00:30:13.270
00:37:39.215 : en:00:37:39.215
00:44:10.356 : en:00:44:10.356
00:51:01.392 : en:00:51:01.392
00:58:22.582 : en:00:58:22.582
01:05:47.026 : en:01:05:47.026
01:16:21.076 : en:01:16:21.076
01:26:41.446 : en:01:26:41.446

Скриншоты

Source vs TayTO vs Japhson vs WEB-DL



Цитата:

  • Сохранены оригинальные чаптеры как на Blu-ray.
  • За выделение голосов с DVD R2 спасибо vlaluk, за диск друзьям из Европы.
  • Релиз:

_________________
Показать сообщения:    

Текущее время: Сегодня 14:21

Часовой пояс: GMT



Вы не можете начинать темы
Вы не можете отвечать на сообщения
Вы не можете редактировать свои сообщения
Вы не можете удалять свои сообщения
Вы не можете голосовать в опросах
Вы не можете прикреплять файлы к сообщениям
Вы не можете скачивать файлы