Важное объявление!
У Нас Все раздачи мультитрекерные, при нуле пиров в релизах, можете смело вставать на закачку!
 
Автор Сообщение

palych74

Стаж:
4 года 4 месяца
Сообщений:
80

Репутация: 21

[+] [-]
Вне форума [Профиль] [ЛС]

Собачья работа
Год выпуска: 2012
Производство: ООО "Арт Пикчерс Медиа"
Жанр: криминал
Продолжительность: ~0:43:00 серия
Субтитры: отсутствуют
Режиссер: Алексей Рудаков
В ролях: Владимир Епифанцев, Ирина Лачина, Александр Стриженов, Светлана Немоляева, Михаил Полицеймако, Елена Дробышева, Анатолий Журавлёв, Галина Звягинцева, Наталия Житкова, Сергей Фролов, Алексей Ильин, Иван Рудаков, Тамара Череповская, Полина Шулика, Игорь Пазыч, Денис Варенов, Николай Круглов, Александр Пугачев
Описание: Капитан полиции и кинолог Илья Смагин (Владимир Епифанцев) во время спецоперации по обезвреживанию банды наркодилеров теряет своего напарника и верного друга - пса Рагдая. Смагин тяжело переживает потерю, но, несмотря на уговоры сослуживцев и своей жены-художницы Тони (Ирина Лачина), не спешит брать новую собаку. Рагдай был лучшим "поисковиком" кинологической службы, и Смагин не верит, что ему когда-нибудь удастся найти пса, равного ему.
Однако когда Илья уже решает начать поиски новой собаки, судьба преподносит ему неожиданный подарок. Смагину передают письмо от погибшего товарища, в котором тот просит позаботиться о его ретривере Луше....
Доп. информация: Релиз группа
Сэмпл: http://rusfolder.com/33026122
Качество: IPTVRip
Формат: AVI
Видео кодек: XviD
Аудио кодек: MP3
Видео: 720x400 (1.80:1), 25 fps, XviD build 50 ~1534 kbps avg, 0.21 bit/pixel
Аудио: 48 kHz, MPEG Layer 3, 2 ch, ~192.00 kbps avg

MI

General
Complete name : W:\ftp4\Videos\Sobachya.rabota.(1-8.seriya.iz.8).2012.XviD.IPTVRip.Files-x\Sobachya.rabota.(2.seriya.iz.8).2012.XviD.IPTVRip.Files-x.avi
Format : AVI
Format/Info : Audio Video Interleave
File size : 550 MiB
Duration : 44mn 16s
Overall bit rate : 1 737 Kbps
Writing application : VirtualDubMod 1.5.10.3 | www.virtualdub-fr.org || (build 2550/release)
Writing library : VirtualDubMod build 2550/release
Video
ID : 0
Format : MPEG-4 Visual
Format profile : Advanced Simple@L5
Format settings, BVOP : 1
Format settings, QPel : No
Format settings, GMC : No warppoints
Format settings, Matrix : Default (H.263)
Codec ID : XVID
Codec ID/Hint : XviD
Duration : 44mn 16s
Bit rate : 1 535 Kbps
Width : 720 pixels
Height : 400 pixels
Display aspect ratio : 16:9
Frame rate : 25.000 fps
Color space : YUV
Chroma subsampling : 4:2:0
Bit depth : 8 bits
Scan type : Progressive
Compression mode : Lossy
Bits/(Pixel*Frame) : 0.213
Stream size : 486 MiB (88%)
Writing library : XviD 1.2.1 (UTC 2008-12-04)
Audio
ID : 1
Format : MPEG Audio
Format version : Version 1
Format profile : Layer 3
Codec ID : 55
Codec ID/Hint : MP3
Duration : 44mn 16s
Bit rate mode : Constant
Bit rate : 192 Kbps
Channel(s) : 2 channels
Sampling rate : 48.0 KHz
Compression mode : Lossy
Stream size : 60.8 MiB (11%)
Alignment : Aligned on interleaves
Interleave, duration : 40 ms (1.00 video frame)
Interleave, preload duration : 504 ms
Writing library : LAME3.99r
Encoding settings : -m s -V 4 -q 2 -lowpass 18.6 -b 192

Внимание! Раздача ведётся путём добавления новых серий!

Внимание! Раздача ведётся путём добавления новых серий
Внимание! Раздача ведётся путём добавления новых серий; при каждом добавлении создётся новый торрент.
Чтобы начать докачку новой серии, пользователям необходимо сделать следующее:
1) остановить скачивание
2) удалить старый торрент у себя из клиента (старые серии удалять не надо)
3) скачать новый торрент и запустить его у себя в клиенте вместо старого, при этом указать клиенту путь в старую папку куда и должно происходить скачивание новых серий.
Ваш клиент при этом должен произвести хеширование (проверку) старой папки (если не производит сам - помогите ему сделать это), и будет докачивать только те серии которых у вас ещё нет. Старые серии при этом не удаляются, а продолжают раздаваться!
Eсли вы уже удалили старые серии, то предотвратить повторную закачку старых серий можно, отжав галочку в соответствовавших местах при запуске нового торрента.

Скриншоты

Показать сообщения:    

Текущее время: Сегодня 12:42

Часовой пояс: GMT



Вы не можете начинать темы
Вы не можете отвечать на сообщения
Вы не можете редактировать свои сообщения
Вы не можете удалять свои сообщения
Вы не можете голосовать в опросах
Вы не можете прикреплять файлы к сообщениям
Вы не можете скачивать файлы