Важное объявление!
У Нас Все раздачи мультитрекерные, при нуле пиров в релизах, можете смело вставать на закачку!
 
Автор Сообщение

HUNTER

Стаж:
4 года 4 месяца
Сообщений:
56848

Репутация: 101

[+] [-]
Вне форума [Профиль] [ЛС]

-Снимать на поражение
«Вторых дублей не будет»
--
Год выпуска: 2012
Страна: Беларусь
Жанр: Боевик, Триллер, Комедия
Продолжительность: 00:48:18
Перевод: Не требуется
Cубтитры: нет--Режиссер: Кирилл Нонг--В ролях:
Василий Свиридов, Александр Лисовский, Вадим Хейфец, Дмитрий Булгаков, Екатерина Бондарева--Описание:
Потеряв всякую надежду воплотить гениальную, по его мнению, идею, при поддержке продюсеров, молодой режиссер решает снять фильм, без посторонней помощи. Но его одержимость и безумный подход к съемке шпионского боевика приводят всю команду к конфликту с настоящими спецагентами.--Качество: SATRip
Формат: AVI
Видео кодек: XviD
Аудио кодек: MP3
Видео: XviD, 720x304, 25 fps, 767 Kbit/s
Аудио: MP3, 2 ch, 128 kbit/s,48,0 КГц--

Доп. информация


Бюджет $2 650
Премьера (мир) 20 октября 2012

Отзывы (КиноПоиск)

http://www.kinopoisk.ru/film/708351/

MI

Код: copyText_writeLink('this.parentNode.parentNode.nextSibling.nextSibling');
General
Complete name : Snimati.na.porajenie.2012_SATRip.avi
Format : AVI
Format/Info : Audio Video Interleave
File size : 313 MiB
Duration : 48mn 18s
Overall bit rate : 904 Kbps
Writing application : VirtualDubMod 1.5.10.3 | www.virtualdub-fr.org || (build 2550/release)
Writing library : VirtualDub build 32817/release
Video
ID : 0
Format : MPEG-4 Visual
Format profile : Advanced Simple@L5
Format settings, BVOP : 1
Format settings, QPel : No
Format settings, GMC : No warppoints
Format settings, Matrix : Default (H.263)
Codec ID : XVID
Codec ID/Hint : XviD
Duration : 48mn 18s
Bit rate : 767 Kbps
Width : 720 pixels
Height : 304 pixels
Display aspect ratio : 2.35:1
Frame rate : 25.000 fps
Color space : YUV
Chroma subsampling : 4:2:0
Bit depth : 8 bits
Scan type : Progressive
Compression mode : Lossy
Bits/(Pixel*Frame) : 0.140
Stream size : 265 MiB (85%)
Writing library : XviD 64
Audio
ID : 1
Format : MPEG Audio
Format version : Version 1
Format profile : Layer 3
Mode : Joint stereo
Mode extension : MS Stereo
Codec ID : 55
Codec ID/Hint : MP3
Duration : 48mn 18s
Bit rate mode : Constant
Bit rate : 128 Kbps
Channel(s) : 2 channels
Sampling rate : 48.0 KHz
Compression mode : Lossy
Stream size : 44.2 MiB (14%)
Alignment : Split accross interleaves
Interleave, duration : 40 ms (1.00 video frame)
Interleave, preload duration : 500 ms

Скриншоты




_________________
Показать сообщения:    

Текущее время: Сегодня 01:23

Часовой пояс: GMT



Вы не можете начинать темы
Вы не можете отвечать на сообщения
Вы не можете редактировать свои сообщения
Вы не можете удалять свои сообщения
Вы не можете голосовать в опросах
Вы не можете прикреплять файлы к сообщениям
Вы не можете скачивать файлы
Наши партнеры: интернет магазин Ивановского трикотажа textilla.ru